<?xml version="1.0" standalone="no"?>
  <!DOCTYPE svg PUBLIC "-//W3C//DTD SVG 1.1//EN" "http://www.w3.org/Graphics/SVG/1.1/DTD/svg11.dtd" >
  <svg>
  <metadata>
  Created by font-carrier
  </metadata>
  <defs>
  <font id="Rubik-Regular" horiz-adv-x="1172" vert-adv-y="1172" >
    <font-face
      
      font-family="Rubik"
      
      font-weight="400"
      
      font-stretch="normal"
      
      units-per-em="1000"
      
      ascent="935"
      
      descent="-250"
      
    />
      <missing-glyph />

      

      
      <glyph glyph-name="unib8" unicode="&#xb8;" d="M175 27L136-56Q149-48 171-48Q204-48 225.50-72Q247-96 247-132Q247-168 224-194Q201-220 148-220Q130-220 113.50-214.50Q97-209 85-201Q73-193 68.50-184.50Q64-176 71-169L85-156Q93-149 98.50-150Q104-151 110.50-155.50Q117-160 125.50-164.50Q134-169 148-169Q191-169 191-134Q191-99 148-99Q136-99 128-101.50Q120-104 114.50-106Q109-108 104.50-107.50Q100-107 94-101L77-83Q72-77 74-69Q76-61 79-53L114 27L175 27Z"  horiz-adv-x="311" vert-adv-y="1000"  />

      
      <glyph glyph-name="uni02C6" unicode="&#x02C6;" d="M224 735Q235 735 243 731Q251 727 261 716L353 624Q358 619 358 611Q358 595 342 595L321 595Q311 595 305 597.50Q299 600 290 606L214 657L138 606Q129 600 123 597.50Q117 595 107 595L86 595Q70 595 70 611Q70 619 75 624L167 716Q177 727 185 731Q193 735 204 735L224 735Z"  horiz-adv-x="428" vert-adv-y="1000"  />

      
      <glyph glyph-name="uniF6C3" unicode="&#xF6C3;" d="M88-89Q90-75 100.50-62.50Q111-50 131-50L183-50Q192-50 198.50-56.50Q205-63 205-72Q205-76 204-79L150-218Q146-228 136.50-239Q127-250 107-250L89-250Q80-250 73.50-243.50Q67-237 67-228L67-226L88-89Z"  horiz-adv-x="273" vert-adv-y="1000"  />

      
      <glyph glyph-name="unia8" unicode="&#xa8;" d="M176 627Q176 616 168 608Q160 600 149 600L92 600Q81 600 73 608Q65 616 65 627L65 684Q65 695 73 703Q81 711 92 711L149 711Q160 711 168 703Q176 695 176 684L176 627M357 627Q357 616 349 608Q341 600 330 600L273 600Q262 600 254 608Q246 616 246 627L246 684Q246 695 254 703Q262 711 273 711L330 711Q341 711 349 703Q357 695 357 684L357 627Z"  horiz-adv-x="422" vert-adv-y="1000"  />

      
      <glyph glyph-name="uni02D9" unicode="&#x02D9;" d="M175 627Q175 616 167 608Q159 600 148 600L91 600Q80 600 72 608Q64 616 64 627L64 684Q64 695 72 703Q80 711 91 711L148 711Q159 711 167 703Q175 695 175 684L175 627Z"  horiz-adv-x="241" vert-adv-y="1000"  />

      
      <glyph glyph-name="uni02DD" unicode="&#x02DD;" d="M110 716Q115 726 123 730.50Q131 735 147 735L216 735Q236 735 236 716Q236 709 230 703L143 609Q131 595 109 595L81 595Q65 595 65 611Q65 615 66.50 619Q68 623 70 626L110 716M287 716Q292 726 300 730.50Q308 735 324 735L393 735Q413 735 413 716Q413 709 407 703L320 609Q308 595 286 595L258 595Q242 595 242 611Q242 615 243.50 619Q245 623 247 626L287 716Z"  horiz-adv-x="478" vert-adv-y="1000"  />

      
      <glyph glyph-name="uni60" unicode="&#x60;" d="M271 624Q276 619 276 611Q276 595 260 595L223 595Q207 595 198 600Q189 605 181 612L70 703Q65 708 65 715Q65 735 84 735L158 735Q169 735 176.50 732Q184 729 195 716L271 624Z"  horiz-adv-x="331" vert-adv-y="1000"  />

      
      <glyph glyph-name="uniaf" unicode="&#xaf;" d="M92 605Q81 605 73 613Q65 621 65 632L65 664Q65 675 73 683Q81 691 92 691L311 691Q322 691 330 683Q338 675 338 664L338 632Q338 621 330 613Q322 605 311 605L92 605Z"  horiz-adv-x="403" vert-adv-y="1000"  />

      
      <glyph glyph-name="uni02DB" unicode="&#x02DB;" d="M208-220Q178-220 151.50-210.50Q125-201 106-182.50Q87-164 76-137Q65-110 65-74Q65-38 76-11Q87 16 106 34.50Q125 53 151.50 62.50Q178 72 208 72L227 72Q249 72 249 50L249 22Q249 0 227 0L212 0Q146 0 146-74Q146-148 212-148L227-148Q249-148 249-170L249-198Q249-220 227-220L208-220Z"  horiz-adv-x="314" vert-adv-y="1000"  />

      
      <glyph glyph-name="uni02DA" unicode="&#x02DA;" d="M120 670Q120 657 128.50 648.50Q137 640 150 640Q163 640 171.50 648.50Q180 657 180 670Q180 683 171.50 691.50Q163 700 150 700Q137 700 128.50 691.50Q120 683 120 670M65 670Q65 705 90 727.50Q115 750 150 750Q185 750 210 727.50Q235 705 235 670Q235 635 210 612.50Q185 590 150 590Q115 590 90 612.50Q65 635 65 670Z"  horiz-adv-x="300" vert-adv-y="1000"  />

      
      <glyph glyph-name="uni02DC" unicode="&#x02DC;" d="M272 590Q250 590 235 595Q220 600 208 606Q196 612 186 617Q176 622 164 622Q152 622 147 618Q142 614 139 608.50Q136 603 132.50 599Q129 595 121 595L84 595Q75 595 70 600.50Q65 606 65 614Q65 625 69.50 641.50Q74 658 84.50 673Q95 688 111.50 699Q128 710 151 710Q173 710 188 705Q203 700 214 694Q225 688 235.50 683Q246 678 259 678Q271 678 276 682Q281 686 284 691.50Q287 697 290.50 701Q294 705 302 705L339 705Q348 705 353 699.50Q358 694 358 686Q358 675 353.50 658.50Q349 642 338.50 627Q328 612 311.50 601Q295 590 272 590Z"  horiz-adv-x="423" vert-adv-y="1000"  />

      
      <glyph glyph-name="uniF6C9" unicode="&#xF6C9;" d="M136 871Q147 884 154.50 887Q162 890 173 890L252 890Q271 890 271 870Q271 863 266 858L155 767Q147 760 138 755Q129 750 113 750L71 750Q55 750 55 766Q55 774 60 779L136 871Z"  horiz-adv-x="336" vert-adv-y="1000"  />

      
      <glyph glyph-name="uniF6CA" unicode="&#xF6CA;" d="M199 750Q188 750 180 754Q172 758 162 769L70 861Q65 866 65 874Q65 890 81 890L107 890Q117 890 123 887.50Q129 885 138 879L214 828L290 879Q299 885 305 887.50Q311 890 321 890L347 890Q363 890 363 874Q363 866 358 861L266 769Q256 758 248 754Q240 750 229 750L199 750Z"  horiz-adv-x="428" vert-adv-y="1000"  />

      
      <glyph glyph-name="uniF6CB" unicode="&#xF6CB;" d="M176 777Q176 766 168 758Q160 750 149 750L92 750Q81 750 73 758Q65 766 65 777L65 834Q65 845 73 853Q81 861 92 861L149 861Q160 861 168 853Q176 845 176 834L176 777M387 777Q387 766 379 758Q371 750 360 750L303 750Q292 750 284 758Q276 766 276 777L276 834Q276 845 284 853Q292 861 303 861L360 861Q371 861 379 853Q387 845 387 834L387 777Z"  horiz-adv-x="452" vert-adv-y="1000"  />

      
      <glyph glyph-name="uniF6CF" unicode="&#xF6CF;" d="M110 871Q115 881 123 885.50Q131 890 147 890L221 890Q241 890 241 871Q241 864 235 858L148 764Q136 750 114 750L81 750Q65 750 65 766Q65 770 66.50 774Q68 778 70 781L110 871M292 871Q297 881 305 885.50Q313 890 329 890L403 890Q423 890 423 871Q423 864 417 858L330 764Q318 750 296 750L263 750Q247 750 247 766Q247 770 248.50 774Q250 778 252 781L292 871Z"  horiz-adv-x="488" vert-adv-y="1000"  />

      
      <glyph glyph-name="uniF6CE" unicode="&#xF6CE;" d="M266 779Q271 774 271 766Q271 750 255 750L213 750Q197 750 188 755Q179 760 171 767L60 858Q55 863 55 870Q55 890 74 890L153 890Q164 890 171.50 887Q179 884 190 871L266 779Z"  horiz-adv-x="336" vert-adv-y="1000"  />

      
      <glyph glyph-name="uniF6D0" unicode="&#xF6D0;" d="M92 750Q81 750 73 758Q65 766 65 777L65 813Q65 824 73 832Q81 840 92 840L321 840Q332 840 340 832Q348 824 348 813L348 777Q348 766 340 758Q332 750 321 750L92 750Z"  horiz-adv-x="413" vert-adv-y="1000"  />

      
      <glyph glyph-name="uni41" unicode="&#x41;" d="M513 158L166 158L114 25Q111 17 103 8.50Q95 0 75 0L38 0Q29 0 22.50 6.50Q16 13 16 22Q16 27 20 36L265 667Q270 678 280 689Q290 700 310 700L370 700Q390 700 400 689Q410 678 415 667L659 36Q663 27 663 22Q663 13 656.50 6.50Q650 0 641 0L604 0Q584 0 576 8.50Q568 17 565 25L513 158M201 248L478 248L340 605L201 248Z"  horiz-adv-x="680" vert-adv-y="1000"  />

      
      <glyph glyph-name="unic1" unicode="&#xc1;" d="M513 158L166 158L114 25Q111 17 103 8.50Q95 0 75 0L38 0Q29 0 22.50 6.50Q16 13 16 22Q16 27 20 36L265 667Q270 678 280 689Q290 700 310 700L370 700Q390 700 400 689Q410 678 415 667L659 36Q663 27 663 22Q663 13 656.50 6.50Q650 0 641 0L604 0Q584 0 576 8.50Q568 17 565 25L513 158M201 248L478 248L340 605L201 248M372 871Q383 884 390.50 887Q398 890 409 890L488 890Q507 890 507 870Q507 863 502 858L391 767Q383 760 374 755Q365 750 349 750L307 750Q291 750 291 766Q291 774 296 779L372 871Z"  horiz-adv-x="680" vert-adv-y="1000"  />

      
      <glyph glyph-name="uni0102" unicode="&#x0102;" d="M513 158L166 158L114 25Q111 17 103 8.50Q95 0 75 0L38 0Q29 0 22.50 6.50Q16 13 16 22Q16 27 20 36L265 667Q270 678 280 689Q290 700 310 700L370 700Q390 700 400 689Q410 678 415 667L659 36Q663 27 663 22Q663 13 656.50 6.50Q650 0 641 0L604 0Q584 0 576 8.50Q568 17 565 25L513 158M201 248L478 248L340 605L201 248M340 745Q306 745 281.50 756Q257 767 241.50 785Q226 803 218.50 825.50Q211 848 211 871Q211 879 216 884.50Q221 890 230 890L262 890Q271 890 276 884.50Q281 879 281 871Q281 845 297 828Q313 811 340 811Q367 811 383 828Q399 845 399 871Q399 879 404 884.50Q409 890 418 890L450 890Q459 890 464 884.50Q469 879 469 871Q469 848 461.50 825.50Q454 803 438.50 785Q423 767 398.50 756Q374 745 340 745Z"  horiz-adv-x="680" vert-adv-y="1000"  />

      
      <glyph glyph-name="unic2" unicode="&#xc2;" d="M513 158L166 158L114 25Q111 17 103 8.50Q95 0 75 0L38 0Q29 0 22.50 6.50Q16 13 16 22Q16 27 20 36L265 667Q270 678 280 689Q290 700 310 700L370 700Q390 700 400 689Q410 678 415 667L659 36Q663 27 663 22Q663 13 656.50 6.50Q650 0 641 0L604 0Q584 0 576 8.50Q568 17 565 25L513 158M201 248L478 248L340 605L201 248M355 890Q366 890 374 886Q382 882 392 871L484 779Q489 774 489 766Q489 750 473 750L447 750Q437 750 431 752.50Q425 755 416 761L340 812L264 761Q255 755 249 752.50Q243 750 233 750L207 750Q191 750 191 766Q191 774 196 779L288 871Q298 882 306 886Q314 890 325 890L355 890Z"  horiz-adv-x="680" vert-adv-y="1000"  />

      
      <glyph glyph-name="unic0" unicode="&#xc0;" d="M513 158L166 158L114 25Q111 17 103 8.50Q95 0 75 0L38 0Q29 0 22.50 6.50Q16 13 16 22Q16 27 20 36L265 667Q270 678 280 689Q290 700 310 700L370 700Q390 700 400 689Q410 678 415 667L659 36Q663 27 663 22Q663 13 656.50 6.50Q650 0 641 0L604 0Q584 0 576 8.50Q568 17 565 25L513 158M201 248L478 248L340 605L201 248M382 779Q387 774 387 766Q387 750 371 750L329 750Q313 750 304 755Q295 760 287 767L176 858Q171 863 171 870Q171 890 190 890L269 890Q280 890 287.50 887Q295 884 306 871L382 779Z"  horiz-adv-x="680" vert-adv-y="1000"  />

      
      <glyph glyph-name="unic4" unicode="&#xc4;" d="M513 158L166 158L114 25Q111 17 103 8.50Q95 0 75 0L38 0Q29 0 22.50 6.50Q16 13 16 22Q16 27 20 36L265 667Q270 678 280 689Q290 700 310 700L370 700Q390 700 400 689Q410 678 415 667L659 36Q663 27 663 22Q663 13 656.50 6.50Q650 0 641 0L604 0Q584 0 576 8.50Q568 17 565 25L513 158M201 248L478 248L340 605L201 248M290 777Q290 766 282 758Q274 750 263 750L206 750Q195 750 187 758Q179 766 179 777L179 834Q179 845 187 853Q195 861 206 861L263 861Q274 861 282 853Q290 845 290 834L290 777M501 777Q501 766 493 758Q485 750 474 750L417 750Q406 750 398 758Q390 766 390 777L390 834Q390 845 398 853Q406 861 417 861L474 861Q485 861 493 853Q501 845 501 834L501 777Z"  horiz-adv-x="680" vert-adv-y="1000"  />

      
      <glyph glyph-name="uni0100" unicode="&#x0100;" d="M513 158L166 158L114 25Q111 17 103 8.50Q95 0 75 0L38 0Q29 0 22.50 6.50Q16 13 16 22Q16 27 20 36L265 667Q270 678 280 689Q290 700 310 700L370 700Q390 700 400 689Q410 678 415 667L659 36Q663 27 663 22Q663 13 656.50 6.50Q650 0 641 0L604 0Q584 0 576 8.50Q568 17 565 25L513 158M201 248L478 248L340 605L201 248M226 750Q215 750 207 758Q199 766 199 777L199 813Q199 824 207 832Q215 840 226 840L455 840Q466 840 474 832Q482 824 482 813L482 777Q482 766 474 758Q466 750 455 750L226 750Z"  horiz-adv-x="680" vert-adv-y="1000"  />

      
      <glyph glyph-name="uni0104" unicode="&#x0104;" d="M609-220Q579-220 552.50-210.50Q526-201 507-182.50Q488-164 477-137Q466-110 466-74Q466-20 489 13.50Q512 47 550 62L513 158L166 158L114 25Q111 17 103 8.50Q95 0 75 0L38 0Q29 0 22.50 6.50Q16 13 16 22Q16 27 20 36L265 667Q270 678 280 689Q290 700 310 700L370 700Q390 700 400 689Q410 678 415 667L659 36Q663 27 663 22Q663 13 656.50 6.50Q650 0 641 0L613 0Q547 0 547-74Q547-148 613-148L628-148Q650-148 650-170L650-198Q650-220 628-220L609-220M201 248L478 248L340 605L201 248Z"  horiz-adv-x="680" vert-adv-y="1000"  />

      
      <glyph glyph-name="unic5" unicode="&#xc5;" d="M513 158L166 158L114 25Q111 17 103 8.50Q95 0 75 0L38 0Q29 0 22.50 6.50Q16 13 16 22Q16 27 20 36L265 667Q270 678 280 689Q290 700 310 700L370 700Q390 700 400 689Q410 678 415 667L659 36Q663 27 663 22Q663 13 656.50 6.50Q650 0 641 0L604 0Q584 0 576 8.50Q568 17 565 25L513 158M201 248L478 248L340 605L201 248M310 820Q310 807 318.50 798.50Q327 790 340 790Q353 790 361.50 798.50Q370 807 370 820Q370 833 361.50 841.50Q353 850 340 850Q327 850 318.50 841.50Q310 833 310 820M255 820Q255 855 280 877.50Q305 900 340 900Q375 900 400 877.50Q425 855 425 820Q425 785 400 762.50Q375 740 340 740Q305 740 280 762.50Q255 785 255 820Z"  horiz-adv-x="680" vert-adv-y="1000"  />

      
      <glyph glyph-name="unic3" unicode="&#xc3;" d="M513 158L166 158L114 25Q111 17 103 8.50Q95 0 75 0L38 0Q29 0 22.50 6.50Q16 13 16 22Q16 27 20 36L265 667Q270 678 280 689Q290 700 310 700L370 700Q390 700 400 689Q410 678 415 667L659 36Q663 27 663 22Q663 13 656.50 6.50Q650 0 641 0L604 0Q584 0 576 8.50Q568 17 565 25L513 158M201 248L478 248L340 605L201 248M404 745Q381 745 365.50 750Q350 755 337.50 761Q325 767 314 772Q303 777 290 777Q278 777 273 773Q268 769 265 763.50Q262 758 258.50 754Q255 750 247 750L210 750Q201 750 196 755.50Q191 761 191 769Q191 780 195.50 796.50Q200 813 210.50 828Q221 843 237.50 854Q254 865 277 865Q300 865 315.50 860Q331 855 343 849Q355 843 366 838Q377 833 391 833Q403 833 408 837Q413 841 416 846.50Q419 852 422.50 856Q426 860 434 860L471 860Q480 860 485 854.50Q490 849 490 841Q490 830 485.50 813.50Q481 797 470.50 782Q460 767 443.50 756Q427 745 404 745Z"  horiz-adv-x="680" vert-adv-y="1000"  />

      
      <glyph glyph-name="unic6" unicode="&#xc6;" d="M884 90Q895 90 903 82Q911 74 911 63L911 27Q911 16 903 8Q895 0 884 0L480 0Q469 0 461 8Q453 16 453 27L453 158L185 158L107 25Q102 17 93.50 8.50Q85 0 68 0L23 0Q14 0 7.50 6.50Q1 13 1 22Q1 27 5 34L379 667Q385 678 394.50 689Q404 700 424 700L876 700Q887 700 895 692Q903 684 903 673L903 637Q903 626 895 618Q887 610 876 610L548 610L548 399L854 399Q865 399 873 391Q881 383 881 372L881 336Q881 325 873 317Q865 309 854 309L548 309L548 90L884 90M453 248L453 610L239 248L453 248Z"  horiz-adv-x="959" vert-adv-y="1000"  />

      
      <glyph glyph-name="uni01FC" unicode="&#x01FC;" d="M884 90Q895 90 903 82Q911 74 911 63L911 27Q911 16 903 8Q895 0 884 0L480 0Q469 0 461 8Q453 16 453 27L453 158L185 158L107 25Q102 17 93.50 8.50Q85 0 68 0L23 0Q14 0 7.50 6.50Q1 13 1 22Q1 27 5 34L379 667Q385 678 394.50 689Q404 700 424 700L876 700Q887 700 895 692Q903 684 903 673L903 637Q903 626 895 618Q887 610 876 610L548 610L548 399L854 399Q865 399 873 391Q881 383 881 372L881 336Q881 325 873 317Q865 309 854 309L548 309L548 90L884 90M453 248L453 610L239 248L453 248M528 871Q539 884 546.50 887Q554 890 565 890L644 890Q663 890 663 870Q663 863 658 858L547 767Q539 760 530 755Q521 750 505 750L463 750Q447 750 447 766Q447 774 452 779L528 871Z"  horiz-adv-x="959" vert-adv-y="1000"  />

      
      <glyph glyph-name="uni42" unicode="&#x42;" d="M181 318L181 90L385 90Q418 90 443.50 99Q469 108 486 124Q503 140 511.50 160Q520 180 520 203Q520 225 512 246Q504 267 487.50 283Q471 299 445.50 308.50Q420 318 385 318L181 318M181 610L181 408L371 408Q438 408 471.50 434Q505 460 505 509Q505 558 471.50 584Q438 610 371 610L181 610M113 0Q102 0 94 8Q86 16 86 27L86 673Q86 684 94 692Q102 700 113 700L381 700Q445 700 487 680.50Q529 661 554 632.50Q579 604 589.50 571Q600 538 600 512Q600 479 590 454Q580 429 566.50 412Q553 395 539.50 385Q526 375 520 371Q558 345 586.50 302.50Q615 260 615 203Q615 165 601 129Q587 93 559.50 64Q532 35 490.50 17.50Q449 0 395 0L113 0Z"  horiz-adv-x="667" vert-adv-y="1000"  />

      
      <glyph glyph-name="uni43" unicode="&#x43;" d="M155 434Q153 389 153 350Q153 311 155 266Q158 183 205.50 131.50Q253 80 342 80Q390 80 423 92Q456 104 477.50 123Q499 142 510.50 166.50Q522 191 528 216Q530 227 538 232.50Q546 238 554 238L600 238Q609 238 615.50 231.50Q622 225 622 216Q621 183 605 144Q589 105 555.50 70.50Q522 36 469.50 13Q417-10 342-10Q277-10 226 10.50Q175 31 138.50 67Q102 103 82 152.50Q62 202 60 261Q57 350 60 439Q62 497 82 547Q102 597 138.50 633Q175 669 226 689.50Q277 710 342 710Q417 710 469.50 687Q522 664 555.50 629.50Q589 595 605 556Q621 517 622 484Q622 475 615.50 468.50Q609 462 600 462L554 462Q546 462 538 467.50Q530 473 528 484Q522 509 510.50 533.50Q499 558 477.50 577Q456 596 423 608Q390 620 342 620Q253 620 205.50 568.50Q158 517 155 434Z"  horiz-adv-x="667" vert-adv-y="1000"  />

      
      <glyph glyph-name="uni0106" unicode="&#x0106;" d="M155 434Q153 389 153 350Q153 311 155 266Q158 183 205.50 131.50Q253 80 342 80Q390 80 423 92Q456 104 477.50 123Q499 142 510.50 166.50Q522 191 528 216Q530 227 538 232.50Q546 238 554 238L600 238Q609 238 615.50 231.50Q622 225 622 216Q621 183 605 144Q589 105 555.50 70.50Q522 36 469.50 13Q417-10 342-10Q277-10 226 10.50Q175 31 138.50 67Q102 103 82 152.50Q62 202 60 261Q57 350 60 439Q62 497 82 547Q102 597 138.50 633Q175 669 226 689.50Q277 710 342 710Q417 710 469.50 687Q522 664 555.50 629.50Q589 595 605 556Q621 517 622 484Q622 475 615.50 468.50Q609 462 600 462L554 462Q546 462 538 467.50Q530 473 528 484Q522 509 510.50 533.50Q499 558 477.50 577Q456 596 423 608Q390 620 342 620Q253 620 205.50 568.50Q158 517 155 434M366 871Q377 884 384.50 887Q392 890 403 890L482 890Q501 890 501 870Q501 863 496 858L385 767Q377 760 368 755Q359 750 343 750L301 750Q285 750 285 766Q285 774 290 779L366 871Z"  horiz-adv-x="667" vert-adv-y="1000"  />

      
      <glyph glyph-name="uni010C" unicode="&#x010C;" d="M155 434Q153 389 153 350Q153 311 155 266Q158 183 205.50 131.50Q253 80 342 80Q390 80 423 92Q456 104 477.50 123Q499 142 510.50 166.50Q522 191 528 216Q530 227 538 232.50Q546 238 554 238L600 238Q609 238 615.50 231.50Q622 225 622 216Q621 183 605 144Q589 105 555.50 70.50Q522 36 469.50 13Q417-10 342-10Q277-10 226 10.50Q175 31 138.50 67Q102 103 82 152.50Q62 202 60 261Q57 350 60 439Q62 497 82 547Q102 597 138.50 633Q175 669 226 689.50Q277 710 342 710Q417 710 469.50 687Q522 664 555.50 629.50Q589 595 605 556Q621 517 622 484Q622 475 615.50 468.50Q609 462 600 462L554 462Q546 462 538 467.50Q530 473 528 484Q522 509 510.50 533.50Q499 558 477.50 577Q456 596 423 608Q390 620 342 620Q253 620 205.50 568.50Q158 517 155 434M325 750Q314 750 306 754Q298 758 288 769L196 861Q191 866 191 874Q191 890 207 890L233 890Q243 890 249 887.50Q255 885 264 879L340 828L416 879Q425 885 431 887.50Q437 890 447 890L473 890Q489 890 489 874Q489 866 484 861L392 769Q382 758 374 754Q366 750 355 750L325 750Z"  horiz-adv-x="667" vert-adv-y="1000"  />

      
      <glyph glyph-name="unic7" unicode="&#xc7;" d="M155 434Q153 389 153 350Q153 311 155 266Q158 183 205.50 131.50Q253 80 342 80Q390 80 423 92Q456 104 477.50 123Q499 142 510.50 166.50Q522 191 528 216Q530 227 538 232.50Q546 238 554 238L600 238Q609 238 615.50 231.50Q622 225 622 216Q621 184 605.50 145Q590 106 557 72Q524 38 472 14.50Q420-9 347-10L326-56Q339-48 361-48Q394-48 415.50-72Q437-96 437-132Q437-168 414-194Q391-220 338-220Q320-220 303.50-214.50Q287-209 275-201Q263-193 258.50-184.50Q254-176 261-169L275-156Q283-149 288.50-150Q294-151 300.50-155.50Q307-160 315.50-164.50Q324-169 338-169Q381-169 381-134Q381-99 338-99Q326-99 318-101.50Q310-104 304.50-106Q299-108 294.50-107.50Q290-107 284-101L267-83Q262-77 264-69Q266-61 269-53L289-6Q236 2 194.50 25Q153 48 123.50 83Q94 118 77.50 163Q61 208 60 261Q57 350 60 439Q62 497 82 547Q102 597 138.50 633Q175 669 226 689.50Q277 710 342 710Q417 710 469.50 687Q522 664 555.50 629.50Q589 595 605 556Q621 517 622 484Q622 475 615.50 468.50Q609 462 600 462L554 462Q546 462 538 467.50Q530 473 528 484Q522 509 510.50 533.50Q499 558 477.50 577Q456 596 423 608Q390 620 342 620Q253 620 205.50 568.50Q158 517 155 434Z"  horiz-adv-x="667" vert-adv-y="1000"  />

      
      <glyph glyph-name="uni0108" unicode="&#x0108;" d="M155 434Q153 389 153 350Q153 311 155 266Q158 183 205.50 131.50Q253 80 342 80Q390 80 423 92Q456 104 477.50 123Q499 142 510.50 166.50Q522 191 528 216Q530 227 538 232.50Q546 238 554 238L600 238Q609 238 615.50 231.50Q622 225 622 216Q621 183 605 144Q589 105 555.50 70.50Q522 36 469.50 13Q417-10 342-10Q277-10 226 10.50Q175 31 138.50 67Q102 103 82 152.50Q62 202 60 261Q57 350 60 439Q62 497 82 547Q102 597 138.50 633Q175 669 226 689.50Q277 710 342 710Q417 710 469.50 687Q522 664 555.50 629.50Q589 595 605 556Q621 517 622 484Q622 475 615.50 468.50Q609 462 600 462L554 462Q546 462 538 467.50Q530 473 528 484Q522 509 510.50 533.50Q499 558 477.50 577Q456 596 423 608Q390 620 342 620Q253 620 205.50 568.50Q158 517 155 434M355 890Q366 890 374 886Q382 882 392 871L484 779Q489 774 489 766Q489 750 473 750L447 750Q437 750 431 752.50Q425 755 416 761L340 812L264 761Q255 755 249 752.50Q243 750 233 750L207 750Q191 750 191 766Q191 774 196 779L288 871Q298 882 306 886Q314 890 325 890L355 890Z"  horiz-adv-x="667" vert-adv-y="1000"  />

      
      <glyph glyph-name="uni010A" unicode="&#x010A;" d="M155 434Q153 389 153 350Q153 311 155 266Q158 183 205.50 131.50Q253 80 342 80Q390 80 423 92Q456 104 477.50 123Q499 142 510.50 166.50Q522 191 528 216Q530 227 538 232.50Q546 238 554 238L600 238Q609 238 615.50 231.50Q622 225 622 216Q621 183 605 144Q589 105 555.50 70.50Q522 36 469.50 13Q417-10 342-10Q277-10 226 10.50Q175 31 138.50 67Q102 103 82 152.50Q62 202 60 261Q57 350 60 439Q62 497 82 547Q102 597 138.50 633Q175 669 226 689.50Q277 710 342 710Q417 710 469.50 687Q522 664 555.50 629.50Q589 595 605 556Q621 517 622 484Q622 475 615.50 468.50Q609 462 600 462L554 462Q546 462 538 467.50Q530 473 528 484Q522 509 510.50 533.50Q499 558 477.50 577Q456 596 423 608Q390 620 342 620Q253 620 205.50 568.50Q158 517 155 434M390 777Q390 766 382 758Q374 750 363 750L306 750Q295 750 287 758Q279 766 279 777L279 834Q279 845 287 853Q295 861 306 861L363 861Q374 861 382 853Q390 845 390 834L390 777Z"  horiz-adv-x="667" vert-adv-y="1000"  />

      
      <glyph glyph-name="uni44" unicode="&#x44;" d="M629 429Q630 384 630 350Q630 316 629 271Q628 208 607 157.50Q586 107 549 72Q512 37 461 18.50Q410 0 348 0L113 0Q102 0 94 8Q86 16 86 27L86 673Q86 684 94 692Q102 700 113 700L342 700Q404 700 456.50 681.50Q509 663 547 628Q585 593 606.50 542.50Q628 492 629 429M534 424Q533 460 522.50 493.50Q512 527 489 553Q466 579 429 594.50Q392 610 338 610L181 610L181 90L343 90Q397 90 433.50 105.50Q470 121 492 147Q514 173 523.50 206.50Q533 240 534 276Q534 298 534.50 315.50Q535 333 535 349.50Q535 366 534.50 383.50Q534 401 534 424Z"  horiz-adv-x="688" vert-adv-y="1000"  />

      
      <glyph glyph-name="uni010E" unicode="&#x010E;" d="M629 429Q630 384 630 350Q630 316 629 271Q628 208 607 157.50Q586 107 549 72Q512 37 461 18.50Q410 0 348 0L113 0Q102 0 94 8Q86 16 86 27L86 673Q86 684 94 692Q102 700 113 700L342 700Q404 700 456.50 681.50Q509 663 547 628Q585 593 606.50 542.50Q628 492 629 429M534 424Q533 460 522.50 493.50Q512 527 489 553Q466 579 429 594.50Q392 610 338 610L181 610L181 90L343 90Q397 90 433.50 105.50Q470 121 492 147Q514 173 523.50 206.50Q533 240 534 276Q534 298 534.50 315.50Q535 333 535 349.50Q535 366 534.50 383.50Q534 401 534 424M313 750Q302 750 294 754Q286 758 276 769L184 861Q179 866 179 874Q179 890 195 890L221 890Q231 890 237 887.50Q243 885 252 879L328 828L404 879Q413 885 419 887.50Q425 890 435 890L461 890Q477 890 477 874Q477 866 472 861L380 769Q370 758 362 754Q354 750 343 750L313 750Z"  horiz-adv-x="688" vert-adv-y="1000"  />

      
      <glyph glyph-name="uni0110" unicode="&#x0110;" d="M643 429Q644 384 644 350Q644 316 643 271Q642 208 621 157.50Q600 107 563 72Q526 37 475 18.50Q424 0 362 0L127 0Q116 0 108 8Q100 16 100 27L100 312L42 312Q31 312 23 320Q15 328 15 339L15 370Q15 381 23 389Q31 397 42 397L100 397L100 673Q100 684 108 692Q116 700 127 700L356 700Q418 700 470.50 681.50Q523 663 561 628Q599 593 620.50 542.50Q642 492 643 429M548 424Q547 460 536.50 493.50Q526 527 503 553Q480 579 443 594.50Q406 610 352 610L195 610L195 397L330 397Q341 397 349 389Q357 381 357 370L357 339Q357 328 349 320Q341 312 330 312L195 312L195 90L357 90Q411 90 447.50 105.50Q484 121 506 147Q528 173 537.50 206.50Q547 240 548 276Q548 298 548.50 315.50Q549 333 549 349.50Q549 366 548.50 383.50Q548 401 548 424Z"  horiz-adv-x="702" vert-adv-y="1000"  />

      
      <glyph glyph-name="uni45" unicode="&#x45;" d="M517 90Q528 90 536 82Q544 74 544 63L544 27Q544 16 536 8Q528 0 517 0L113 0Q102 0 94 8Q86 16 86 27L86 673Q86 684 94 692Q102 700 113 700L509 700Q520 700 528 692Q536 684 536 673L536 637Q536 626 528 618Q520 610 509 610L181 610L181 399L487 399Q498 399 506 391Q514 383 514 372L514 336Q514 325 506 317Q498 309 487 309L181 309L181 90L517 90Z"  horiz-adv-x="592" vert-adv-y="1000"  />

      
      <glyph glyph-name="unic9" unicode="&#xc9;" d="M517 90Q528 90 536 82Q544 74 544 63L544 27Q544 16 536 8Q528 0 517 0L113 0Q102 0 94 8Q86 16 86 27L86 673Q86 684 94 692Q102 700 113 700L509 700Q520 700 528 692Q536 684 536 673L536 637Q536 626 528 618Q520 610 509 610L181 610L181 399L487 399Q498 399 506 391Q514 383 514 372L514 336Q514 325 506 317Q498 309 487 309L181 309L181 90L517 90M331 871Q342 884 349.50 887Q357 890 368 890L447 890Q466 890 466 870Q466 863 461 858L350 767Q342 760 333 755Q324 750 308 750L266 750Q250 750 250 766Q250 774 255 779L331 871Z"  horiz-adv-x="592" vert-adv-y="1000"  />

      
      <glyph glyph-name="uni0114" unicode="&#x0114;" d="M517 90Q528 90 536 82Q544 74 544 63L544 27Q544 16 536 8Q528 0 517 0L113 0Q102 0 94 8Q86 16 86 27L86 673Q86 684 94 692Q102 700 113 700L509 700Q520 700 528 692Q536 684 536 673L536 637Q536 626 528 618Q520 610 509 610L181 610L181 399L487 399Q498 399 506 391Q514 383 514 372L514 336Q514 325 506 317Q498 309 487 309L181 309L181 90L517 90M315 745Q281 745 256.50 756Q232 767 216.50 785Q201 803 193.50 825.50Q186 848 186 871Q186 879 191 884.50Q196 890 205 890L237 890Q246 890 251 884.50Q256 879 256 871Q256 845 272 828Q288 811 315 811Q342 811 358 828Q374 845 374 871Q374 879 379 884.50Q384 890 393 890L425 890Q434 890 439 884.50Q444 879 444 871Q444 848 436.50 825.50Q429 803 413.50 785Q398 767 373.50 756Q349 745 315 745Z"  horiz-adv-x="592" vert-adv-y="1000"  />

      
      <glyph glyph-name="uni011A" unicode="&#x011A;" d="M517 90Q528 90 536 82Q544 74 544 63L544 27Q544 16 536 8Q528 0 517 0L113 0Q102 0 94 8Q86 16 86 27L86 673Q86 684 94 692Q102 700 113 700L509 700Q520 700 528 692Q536 684 536 673L536 637Q536 626 528 618Q520 610 509 610L181 610L181 399L487 399Q498 399 506 391Q514 383 514 372L514 336Q514 325 506 317Q498 309 487 309L181 309L181 90L517 90M300 750Q289 750 281 754Q273 758 263 769L171 861Q166 866 166 874Q166 890 182 890L208 890Q218 890 224 887.50Q230 885 239 879L315 828L391 879Q400 885 406 887.50Q412 890 422 890L448 890Q464 890 464 874Q464 866 459 861L367 769Q357 758 349 754Q341 750 330 750L300 750Z"  horiz-adv-x="592" vert-adv-y="1000"  />

      
      <glyph glyph-name="unica" unicode="&#xca;" d="M517 90Q528 90 536 82Q544 74 544 63L544 27Q544 16 536 8Q528 0 517 0L113 0Q102 0 94 8Q86 16 86 27L86 673Q86 684 94 692Q102 700 113 700L509 700Q520 700 528 692Q536 684 536 673L536 637Q536 626 528 618Q520 610 509 610L181 610L181 399L487 399Q498 399 506 391Q514 383 514 372L514 336Q514 325 506 317Q498 309 487 309L181 309L181 90L517 90M330 890Q341 890 349 886Q357 882 367 871L459 779Q464 774 464 766Q464 750 448 750L422 750Q412 750 406 752.50Q400 755 391 761L315 812L239 761Q230 755 224 752.50Q218 750 208 750L182 750Q166 750 166 766Q166 774 171 779L263 871Q273 882 281 886Q289 890 300 890L330 890Z"  horiz-adv-x="592" vert-adv-y="1000"  />

      
      <glyph glyph-name="unicb" unicode="&#xcb;" d="M517 90Q528 90 536 82Q544 74 544 63L544 27Q544 16 536 8Q528 0 517 0L113 0Q102 0 94 8Q86 16 86 27L86 673Q86 684 94 692Q102 700 113 700L509 700Q520 700 528 692Q536 684 536 673L536 637Q536 626 528 618Q520 610 509 610L181 610L181 399L487 399Q498 399 506 391Q514 383 514 372L514 336Q514 325 506 317Q498 309 487 309L181 309L181 90L517 90M265 777Q265 766 257 758Q249 750 238 750L181 750Q170 750 162 758Q154 766 154 777L154 834Q154 845 162 853Q170 861 181 861L238 861Q249 861 257 853Q265 845 265 834L265 777M476 777Q476 766 468 758Q460 750 449 750L392 750Q381 750 373 758Q365 766 365 777L365 834Q365 845 373 853Q381 861 392 861L449 861Q460 861 468 853Q476 845 476 834L476 777Z"  horiz-adv-x="592" vert-adv-y="1000"  />

      
      <glyph glyph-name="uni0116" unicode="&#x0116;" d="M517 90Q528 90 536 82Q544 74 544 63L544 27Q544 16 536 8Q528 0 517 0L113 0Q102 0 94 8Q86 16 86 27L86 673Q86 684 94 692Q102 700 113 700L509 700Q520 700 528 692Q536 684 536 673L536 637Q536 626 528 618Q520 610 509 610L181 610L181 399L487 399Q498 399 506 391Q514 383 514 372L514 336Q514 325 506 317Q498 309 487 309L181 309L181 90L517 90M371 777Q371 766 363 758Q355 750 344 750L287 750Q276 750 268 758Q260 766 260 777L260 834Q260 845 268 853Q276 861 287 861L344 861Q355 861 363 853Q371 845 371 834L371 777Z"  horiz-adv-x="592" vert-adv-y="1000"  />

      
      <glyph glyph-name="unic8" unicode="&#xc8;" d="M517 90Q528 90 536 82Q544 74 544 63L544 27Q544 16 536 8Q528 0 517 0L113 0Q102 0 94 8Q86 16 86 27L86 673Q86 684 94 692Q102 700 113 700L509 700Q520 700 528 692Q536 684 536 673L536 637Q536 626 528 618Q520 610 509 610L181 610L181 399L487 399Q498 399 506 391Q514 383 514 372L514 336Q514 325 506 317Q498 309 487 309L181 309L181 90L517 90M358 779Q363 774 363 766Q363 750 347 750L305 750Q289 750 280 755Q271 760 263 767L152 858Q147 863 147 870Q147 890 166 890L245 890Q256 890 263.50 887Q271 884 282 871L358 779Z"  horiz-adv-x="592" vert-adv-y="1000"  />

      
      <glyph glyph-name="uni0112" unicode="&#x0112;" d="M517 90Q528 90 536 82Q544 74 544 63L544 27Q544 16 536 8Q528 0 517 0L113 0Q102 0 94 8Q86 16 86 27L86 673Q86 684 94 692Q102 700 113 700L509 700Q520 700 528 692Q536 684 536 673L536 637Q536 626 528 618Q520 610 509 610L181 610L181 399L487 399Q498 399 506 391Q514 383 514 372L514 336Q514 325 506 317Q498 309 487 309L181 309L181 90L517 90M201 750Q190 750 182 758Q174 766 174 777L174 813Q174 824 182 832Q190 840 201 840L430 840Q441 840 449 832Q457 824 457 813L457 777Q457 766 449 758Q441 750 430 750L201 750Z"  horiz-adv-x="592" vert-adv-y="1000"  />

      
      <glyph glyph-name="uni0118" unicode="&#x0118;" d="M503-220Q473-220 446.50-210.50Q420-201 401-182.50Q382-164 371-137Q360-110 360-74Q360-30 375 0L113 0Q102 0 94 8Q86 16 86 27L86 673Q86 684 94 692Q102 700 113 700L509 700Q520 700 528 692Q536 684 536 673L536 637Q536 626 528 618Q520 610 509 610L181 610L181 399L487 399Q498 399 506 391Q514 383 514 372L514 336Q514 325 506 317Q498 309 487 309L181 309L181 90L517 90Q528 90 536 82Q544 74 544 63L544 27Q544 16 536 8Q528 0 517 0L507 0Q441 0 441-74Q441-148 507-148L522-148Q544-148 544-170L544-198Q544-220 522-220L503-220Z"  horiz-adv-x="592" vert-adv-y="1000"  />

      
      <glyph glyph-name="uni46" unicode="&#x46;" d="M510 700Q521 700 529 692Q537 684 537 673L537 637Q537 626 529 618Q521 610 510 610L181 610L181 379L490 379Q501 379 509 371Q517 363 517 352L517 316Q517 305 509 297Q501 289 490 289L181 289L181 27Q181 16 173 8Q165 0 154 0L113 0Q102 0 94 8Q86 16 86 27L86 673Q86 684 94 692Q102 700 113 700L510 700Z"  horiz-adv-x="577" vert-adv-y="1000"  />

      
      <glyph glyph-name="uni47" unicode="&#x47;" d="M60 441Q62 496 79.50 545Q97 594 132.50 631Q168 668 221 689Q274 710 346 710Q414 710 465.50 690Q517 670 551.50 640.50Q586 611 603.50 577.50Q621 544 622 517Q623 508 616 501.50Q609 495 600 495L559 495Q535 495 530 506Q518 530 502.50 551Q487 572 466 587Q445 602 415.50 611Q386 620 346 620Q305 620 270.50 608.50Q236 597 211 574Q186 551 171 516.50Q156 482 155 436Q153 391 153 353Q153 315 155 270Q156 222 171 186Q186 150 211 126.50Q236 103 270.50 91.50Q305 80 346 80Q386 80 421 90Q456 100 482 122.50Q508 145 522.50 181Q537 217 537 269L537 297L393 297Q382 297 374 305Q366 313 366 324L366 360Q366 371 374 379Q382 387 393 387L605 387Q616 387 624 379Q632 371 632 360L632 265Q632 205 613 154.50Q594 104 557.50 67.50Q521 31 467.50 10.50Q414-10 346-10Q274-10 221 11.50Q168 33 133 70Q98 107 80 157Q62 207 60 265Q57 353 60 441Z"  horiz-adv-x="684" vert-adv-y="1000"  />

      
      <glyph glyph-name="uni011E" unicode="&#x011E;" d="M60 441Q62 496 79.50 545Q97 594 132.50 631Q168 668 221 689Q274 710 346 710Q414 710 465.50 690Q517 670 551.50 640.50Q586 611 603.50 577.50Q621 544 622 517Q623 508 616 501.50Q609 495 600 495L559 495Q535 495 530 506Q518 530 502.50 551Q487 572 466 587Q445 602 415.50 611Q386 620 346 620Q305 620 270.50 608.50Q236 597 211 574Q186 551 171 516.50Q156 482 155 436Q153 391 153 353Q153 315 155 270Q156 222 171 186Q186 150 211 126.50Q236 103 270.50 91.50Q305 80 346 80Q386 80 421 90Q456 100 482 122.50Q508 145 522.50 181Q537 217 537 269L537 297L393 297Q382 297 374 305Q366 313 366 324L366 360Q366 371 374 379Q382 387 393 387L605 387Q616 387 624 379Q632 371 632 360L632 265Q632 205 613 154.50Q594 104 557.50 67.50Q521 31 467.50 10.50Q414-10 346-10Q274-10 221 11.50Q168 33 133 70Q98 107 80 157Q62 207 60 265Q57 353 60 441M345 745Q311 745 286.50 756Q262 767 246.50 785Q231 803 223.50 825.50Q216 848 216 871Q216 879 221 884.50Q226 890 235 890L267 890Q276 890 281 884.50Q286 879 286 871Q286 845 302 828Q318 811 345 811Q372 811 388 828Q404 845 404 871Q404 879 409 884.50Q414 890 423 890L455 890Q464 890 469 884.50Q474 879 474 871Q474 848 466.50 825.50Q459 803 443.50 785Q428 767 403.50 756Q379 745 345 745Z"  horiz-adv-x="684" vert-adv-y="1000"  />

      
      <glyph glyph-name="uni011C" unicode="&#x011C;" d="M60 441Q62 496 79.50 545Q97 594 132.50 631Q168 668 221 689Q274 710 346 710Q414 710 465.50 690Q517 670 551.50 640.50Q586 611 603.50 577.50Q621 544 622 517Q623 508 616 501.50Q609 495 600 495L559 495Q535 495 530 506Q518 530 502.50 551Q487 572 466 587Q445 602 415.50 611Q386 620 346 620Q305 620 270.50 608.50Q236 597 211 574Q186 551 171 516.50Q156 482 155 436Q153 391 153 353Q153 315 155 270Q156 222 171 186Q186 150 211 126.50Q236 103 270.50 91.50Q305 80 346 80Q386 80 421 90Q456 100 482 122.50Q508 145 522.50 181Q537 217 537 269L537 297L393 297Q382 297 374 305Q366 313 366 324L366 360Q366 371 374 379Q382 387 393 387L605 387Q616 387 624 379Q632 371 632 360L632 265Q632 205 613 154.50Q594 104 557.50 67.50Q521 31 467.50 10.50Q414-10 346-10Q274-10 221 11.50Q168 33 133 70Q98 107 80 157Q62 207 60 265Q57 353 60 441M360 890Q371 890 379 886Q387 882 397 871L489 779Q494 774 494 766Q494 750 478 750L452 750Q442 750 436 752.50Q430 755 421 761L345 812L269 761Q260 755 254 752.50Q248 750 238 750L212 750Q196 750 196 766Q196 774 201 779L293 871Q303 882 311 886Q319 890 330 890L360 890Z"  horiz-adv-x="684" vert-adv-y="1000"  />

      
      <glyph glyph-name="uni0122" unicode="&#x0122;" d="M60 441Q62 496 79.50 545Q97 594 132.50 631Q168 668 221 689Q274 710 346 710Q414 710 465.50 690Q517 670 551.50 640.50Q586 611 603.50 577.50Q621 544 622 517Q623 508 616 501.50Q609 495 600 495L559 495Q535 495 530 506Q518 530 502.50 551Q487 572 466 587Q445 602 415.50 611Q386 620 346 620Q305 620 270.50 608.50Q236 597 211 574Q186 551 171 516.50Q156 482 155 436Q153 391 153 353Q153 315 155 270Q156 222 171 186Q186 150 211 126.50Q236 103 270.50 91.50Q305 80 346 80Q386 80 421 90Q456 100 482 122.50Q508 145 522.50 181Q537 217 537 269L537 297L393 297Q382 297 374 305Q366 313 366 324L366 360Q366 371 374 379Q382 387 393 387L605 387Q616 387 624 379Q632 371 632 360L632 265Q632 205 613 154.50Q594 104 557.50 67.50Q521 31 467.50 10.50Q414-10 346-10Q274-10 221 11.50Q168 33 133 70Q98 107 80 157Q62 207 60 265Q57 353 60 441M280-89Q282-75 292.50-62.50Q303-50 323-50L381-50Q390-50 396.50-56.50Q403-63 403-72Q403-76 402-79L348-218Q344-228 334.50-239Q325-250 305-250L281-250Q272-250 265.50-243.50Q259-237 259-228L259-226L280-89Z"  horiz-adv-x="684" vert-adv-y="1000"  />

      
      <glyph glyph-name="uni0120" unicode="&#x0120;" d="M60 441Q62 496 79.50 545Q97 594 132.50 631Q168 668 221 689Q274 710 346 710Q414 710 465.50 690Q517 670 551.50 640.50Q586 611 603.50 577.50Q621 544 622 517Q623 508 616 501.50Q609 495 600 495L559 495Q535 495 530 506Q518 530 502.50 551Q487 572 466 587Q445 602 415.50 611Q386 620 346 620Q305 620 270.50 608.50Q236 597 211 574Q186 551 171 516.50Q156 482 155 436Q153 391 153 353Q153 315 155 270Q156 222 171 186Q186 150 211 126.50Q236 103 270.50 91.50Q305 80 346 80Q386 80 421 90Q456 100 482 122.50Q508 145 522.50 181Q537 217 537 269L537 297L393 297Q382 297 374 305Q366 313 366 324L366 360Q366 371 374 379Q382 387 393 387L605 387Q616 387 624 379Q632 371 632 360L632 265Q632 205 613 154.50Q594 104 557.50 67.50Q521 31 467.50 10.50Q414-10 346-10Q274-10 221 11.50Q168 33 133 70Q98 107 80 157Q62 207 60 265Q57 353 60 441M401 777Q401 766 393 758Q385 750 374 750L317 750Q306 750 298 758Q290 766 290 777L290 834Q290 845 298 853Q306 861 317 861L374 861Q385 861 393 853Q401 845 401 834L401 777Z"  horiz-adv-x="684" vert-adv-y="1000"  />

      
      <glyph glyph-name="uni48" unicode="&#x48;" d="M601 700Q612 700 620 692Q628 684 628 673L628 27Q628 16 620 8Q612 0 601 0L560 0Q549 0 541 8Q533 16 533 27L533 309L181 309L181 27Q181 16 173 8Q165 0 154 0L113 0Q102 0 94 7.50Q86 15 86 27L86 673Q86 684 94 692Q102 700 113 700L154 700Q165 700 173 692Q181 684 181 673L181 399L533 399L533 673Q533 684 541 692Q549 700 560 700L601 700Z"  horiz-adv-x="714" vert-adv-y="1000"  />

      
      <glyph glyph-name="uni0126" unicode="&#x0126;" d="M608 700Q619 700 627 692Q635 684 635 673L635 594L678 594Q689 594 697 586Q705 578 705 567L705 531Q705 520 697 512Q689 504 678 504L635 504L635 27Q635 16 627 8Q619 0 608 0L567 0Q556 0 548 8Q540 16 540 27L540 309L188 309L188 27Q188 16 180 8Q172 0 161 0L120 0Q109 0 101 7.50Q93 15 93 27L93 504L50 504Q39 504 31 512Q23 520 23 531L23 567Q23 578 31 586Q39 594 50 594L93 594L93 673Q93 684 101 692Q109 700 120 700L161 700Q172 700 180 692Q188 684 188 673L188 594L540 594L540 673Q540 684 548 692Q556 700 567 700L608 700M540 399L540 504L188 504L188 399L540 399Z"  horiz-adv-x="728" vert-adv-y="1000"  />

      
      <glyph glyph-name="uni0124" unicode="&#x0124;" d="M601 700Q612 700 620 692Q628 684 628 673L628 27Q628 16 620 8Q612 0 601 0L560 0Q549 0 541 8Q533 16 533 27L533 309L181 309L181 27Q181 16 173 8Q165 0 154 0L113 0Q102 0 94 7.50Q86 15 86 27L86 673Q86 684 94 692Q102 700 113 700L154 700Q165 700 173 692Q181 684 181 673L181 399L533 399L533 673Q533 684 541 692Q549 700 560 700L601 700M372 890Q383 890 391 886Q399 882 409 871L501 779Q506 774 506 766Q506 750 490 750L464 750Q454 750 448 752.50Q442 755 433 761L357 812L281 761Q272 755 266 752.50Q260 750 250 750L224 750Q208 750 208 766Q208 774 213 779L305 871Q315 882 323 886Q331 890 342 890L372 890Z"  horiz-adv-x="714" vert-adv-y="1000"  />

      
      <glyph glyph-name="uni49" unicode="&#x49;" d="M113 0Q102 0 94 8Q86 16 86 27L86 673Q86 684 94 692Q102 700 113 700L154 700Q165 700 173 692Q181 684 181 673L181 27Q181 16 173 8Q165 0 154 0L113 0Z"  horiz-adv-x="267" vert-adv-y="1000"  />

      
      <glyph glyph-name="unicd" unicode="&#xcd;" d="M113 0Q102 0 94 8Q86 16 86 27L86 673Q86 684 94 692Q102 700 113 700L154 700Q165 700 173 692Q181 684 181 673L181 27Q181 16 173 8Q165 0 154 0L113 0M166 871Q177 884 184.50 887Q192 890 203 890L282 890Q301 890 301 870Q301 863 296 858L185 767Q177 760 168 755Q159 750 143 750L101 750Q85 750 85 766Q85 774 90 779L166 871Z"  horiz-adv-x="267" vert-adv-y="1000"  />

      
      <glyph glyph-name="uni012C" unicode="&#x012C;" d="M113 0Q102 0 94 8Q86 16 86 27L86 673Q86 684 94 692Q102 700 113 700L154 700Q165 700 173 692Q181 684 181 673L181 27Q181 16 173 8Q165 0 154 0L113 0M133 745Q99 745 74.50 756Q50 767 34.50 785Q19 803 11.50 825.50Q4 848 4 871Q4 879 9 884.50Q14 890 23 890L55 890Q64 890 69 884.50Q74 879 74 871Q74 845 90 828Q106 811 133 811Q160 811 176 828Q192 845 192 871Q192 879 197 884.50Q202 890 211 890L243 890Q252 890 257 884.50Q262 879 262 871Q262 848 254.50 825.50Q247 803 231.50 785Q216 767 191.50 756Q167 745 133 745Z"  horiz-adv-x="267" vert-adv-y="1000"  />

      
      <glyph glyph-name="unice" unicode="&#xce;" d="M113 0Q102 0 94 8Q86 16 86 27L86 673Q86 684 94 692Q102 700 113 700L154 700Q165 700 173 692Q181 684 181 673L181 27Q181 16 173 8Q165 0 154 0L113 0M148 890Q159 890 167 886Q175 882 185 871L277 779Q282 774 282 766Q282 750 266 750L240 750Q230 750 224 752.50Q218 755 209 761L133 812L57 761Q48 755 42 752.50Q36 750 26 750L0 750Q-16 750-16 766Q-16 774-11 779L81 871Q91 882 99 886Q107 890 118 890L148 890Z"  horiz-adv-x="267" vert-adv-y="1000"  />

      
      <glyph glyph-name="unicf" unicode="&#xcf;" d="M113 0Q102 0 94 8Q86 16 86 27L86 673Q86 684 94 692Q102 700 113 700L154 700Q165 700 173 692Q181 684 181 673L181 27Q181 16 173 8Q165 0 154 0L113 0M83 777Q83 766 75 758Q67 750 56 750L-1 750Q-12 750-20 758Q-28 766-28 777L-28 834Q-28 845-20 853Q-12 861-1 861L56 861Q67 861 75 853Q83 845 83 834L83 777M294 777Q294 766 286 758Q278 750 267 750L210 750Q199 750 191 758Q183 766 183 777L183 834Q183 845 191 853Q199 861 210 861L267 861Q278 861 286 853Q294 845 294 834L294 777Z"  horiz-adv-x="267" vert-adv-y="1000"  />

      
      <glyph glyph-name="uni0130" unicode="&#x0130;" d="M113 0Q102 0 94 8Q86 16 86 27L86 673Q86 684 94 692Q102 700 113 700L154 700Q165 700 173 692Q181 684 181 673L181 27Q181 16 173 8Q165 0 154 0L113 0M189 777Q189 766 181 758Q173 750 162 750L105 750Q94 750 86 758Q78 766 78 777L78 834Q78 845 86 853Q94 861 105 861L162 861Q173 861 181 853Q189 845 189 834L189 777Z"  horiz-adv-x="267" vert-adv-y="1000"  />

      
      <glyph glyph-name="unicc" unicode="&#xcc;" d="M113 0Q102 0 94 8Q86 16 86 27L86 673Q86 684 94 692Q102 700 113 700L154 700Q165 700 173 692Q181 684 181 673L181 27Q181 16 173 8Q165 0 154 0L113 0M174 779Q179 774 179 766Q179 750 163 750L121 750Q105 750 96 755Q87 760 79 767L-32 858Q-37 863-37 870Q-37 890-18 890L61 890Q72 890 79.50 887Q87 884 98 871L174 779Z"  horiz-adv-x="267" vert-adv-y="1000"  />

      
      <glyph glyph-name="uni012A" unicode="&#x012A;" d="M113 0Q102 0 94 8Q86 16 86 27L86 673Q86 684 94 692Q102 700 113 700L154 700Q165 700 173 692Q181 684 181 673L181 27Q181 16 173 8Q165 0 154 0L113 0M19 750Q8 750 0 758Q-8 766-8 777L-8 813Q-8 824 0 832Q8 840 19 840L248 840Q259 840 267 832Q275 824 275 813L275 777Q275 766 267 758Q259 750 248 750L19 750Z"  horiz-adv-x="267" vert-adv-y="1000"  />

      
      <glyph glyph-name="uni012E" unicode="&#x012E;" d="M155 0Q96-3 96-74Q96-148 162-148L177-148Q199-148 199-170L199-198Q199-220 177-220L158-220Q128-220 101.50-210.50Q75-201 56-182.50Q37-164 26-137Q15-110 15-74Q15-19 39.50 15Q64 49 104 63L104 673Q104 684 112 692Q120 700 131 700L172 700Q183 700 191 692Q199 684 199 673L199 27Q199 16 191 8Q183 0 172 0L155 0Z"  horiz-adv-x="285" vert-adv-y="1000"  />

      
      <glyph glyph-name="uni0128" unicode="&#x0128;" d="M113 0Q102 0 94 8Q86 16 86 27L86 673Q86 684 94 692Q102 700 113 700L154 700Q165 700 173 692Q181 684 181 673L181 27Q181 16 173 8Q165 0 154 0L113 0M197 745Q174 745 158.50 750Q143 755 130.50 761Q118 767 107 772Q96 777 83 777Q71 777 66 773Q61 769 58 763.50Q55 758 51.50 754Q48 750 40 750L3 750Q-6 750-11 755.50Q-16 761-16 769Q-16 780-11.50 796.50Q-7 813 3.50 828Q14 843 30.50 854Q47 865 70 865Q93 865 108.50 860Q124 855 136 849Q148 843 159 838Q170 833 184 833Q196 833 201 837Q206 841 209 846.50Q212 852 215.50 856Q219 860 227 860L264 860Q273 860 278 854.50Q283 849 283 841Q283 830 278.50 813.50Q274 797 263.50 782Q253 767 236.50 756Q220 745 197 745Z"  horiz-adv-x="267" vert-adv-y="1000"  />

      
      <glyph glyph-name="uni4a" unicode="&#x4a;" d="M549 245Q549 188 532.50 141.50Q516 95 483.50 61Q451 27 403 8.50Q355-10 292-10Q231-10 183.50 8Q136 26 103 56Q70 86 52.50 125Q35 164 34 206Q34 215 40.50 221.50Q47 228 56 228L107 228Q124 228 129 206Q134 181 145.50 158Q157 135 176.50 118Q196 101 224.50 90.50Q253 80 292 80Q380 80 417 126Q454 172 454 256L454 610L109 610Q98 610 90 618Q82 626 82 637L82 673Q82 684 90 692Q98 700 109 700L522 700Q533 700 541 692Q549 684 549 673L549 245Z"  horiz-adv-x="629" vert-adv-y="1000"  />

      
      <glyph glyph-name="uni0134" unicode="&#x0134;" d="M549 245Q549 188 532.50 141.50Q516 95 483.50 61Q451 27 403 8.50Q355-10 292-10Q231-10 183.50 8Q136 26 103 56Q70 86 52.50 125Q35 164 34 206Q34 215 40.50 221.50Q47 228 56 228L107 228Q124 228 129 206Q134 181 145.50 158Q157 135 176.50 118Q196 101 224.50 90.50Q253 80 292 80Q380 80 417 126Q454 172 454 256L454 610L109 610Q98 610 90 618Q82 626 82 637L82 673Q82 684 90 692Q98 700 109 700L522 700Q533 700 541 692Q549 684 549 673L549 245M339 890Q350 890 358 886Q366 882 376 871L468 779Q473 774 473 766Q473 750 457 750L431 750Q421 750 415 752.50Q409 755 400 761L324 812L248 761Q239 755 233 752.50Q227 750 217 750L191 750Q175 750 175 766Q175 774 180 779L272 871Q282 882 290 886Q298 890 309 890L339 890Z"  horiz-adv-x="629" vert-adv-y="1000"  />

      
      <glyph glyph-name="uni4b" unicode="&#x4b;" d="M233 365L574 40Q580 34 582 29.50Q584 25 584 22Q584 13 577.50 6.50Q571 0 562 0L500 0Q486 0 477 5.50Q468 11 464 15L181 285L181 27Q181 16 173 8Q165 0 154 0L113 0Q102 0 94 8Q86 16 86 27L86 673Q86 684 94 692Q102 700 113 700L154 700Q165 700 173 692Q181 684 181 673L181 440L448 685Q452 689 461 694.50Q470 700 484 700L542 700Q551 700 557.50 693.50Q564 687 564 678Q564 675 562 670.50Q560 666 554 660L233 365Z"  horiz-adv-x="599" vert-adv-y="1000"  />

      
      <glyph glyph-name="uni0136" unicode="&#x0136;" d="M233 365L574 40Q580 34 582 29.50Q584 25 584 22Q584 13 577.50 6.50Q571 0 562 0L500 0Q486 0 477 5.50Q468 11 464 15L181 285L181 27Q181 16 173 8Q165 0 154 0L113 0Q102 0 94 8Q86 16 86 27L86 673Q86 684 94 692Q102 700 113 700L154 700Q165 700 173 692Q181 684 181 673L181 440L448 685Q452 689 461 694.50Q470 700 484 700L542 700Q551 700 557.50 693.50Q564 687 564 678Q564 675 562 670.50Q560 666 554 660L233 365M230-89Q232-75 242.50-62.50Q253-50 273-50L331-50Q340-50 346.50-56.50Q353-63 353-72Q353-76 352-79L298-218Q294-228 284.50-239Q275-250 255-250L231-250Q222-250 215.50-243.50Q209-237 209-228L209-226L230-89Z"  horiz-adv-x="599" vert-adv-y="1000"  />

      
      <glyph glyph-name="uni4c" unicode="&#x4c;" d="M520 90Q531 90 539 82Q547 74 547 63L547 27Q547 16 539 8Q531 0 520 0L113 0Q102 0 94 8Q86 16 86 27L86 673Q86 684 94 692Q102 700 113 700L154 700Q165 700 173 692Q181 684 181 673L181 90L520 90Z"  horiz-adv-x="566" vert-adv-y="1000"  />

      
      <glyph glyph-name="uni0139" unicode="&#x0139;" d="M520 90Q531 90 539 82Q547 74 547 63L547 27Q547 16 539 8Q531 0 520 0L113 0Q102 0 94 8Q86 16 86 27L86 673Q86 684 94 692Q102 700 113 700L154 700Q165 700 173 692Q181 684 181 673L181 90L520 90M165 871Q176 884 183.50 887Q191 890 202 890L281 890Q300 890 300 870Q300 863 295 858L184 767Q176 760 167 755Q158 750 142 750L100 750Q84 750 84 766Q84 774 89 779L165 871Z"  horiz-adv-x="566" vert-adv-y="1000"  />

      
      <glyph glyph-name="uni013D" unicode="&#x013D;" d="M520 90Q531 90 539 82Q547 74 547 63L547 27Q547 16 539 8Q531 0 520 0L113 0Q102 0 94 8Q86 16 86 27L86 673Q86 684 94 692Q102 700 113 700L154 700Q165 700 173 692Q181 684 181 673L181 90L520 90M321 670Q323 684 333.50 696.50Q344 709 364 709L422 709Q431 709 437.50 702.50Q444 696 444 687Q444 683 443 680L389 541Q385 531 375.50 520Q366 509 346 509L322 509Q313 509 306.50 515.50Q300 522 300 531L300 533L321 670Z"  horiz-adv-x="566" vert-adv-y="1000"  />

      
      <glyph glyph-name="uni013B" unicode="&#x013B;" d="M520 90Q531 90 539 82Q547 74 547 63L547 27Q547 16 539 8Q531 0 520 0L113 0Q102 0 94 8Q86 16 86 27L86 673Q86 684 94 692Q102 700 113 700L154 700Q165 700 173 692Q181 684 181 673L181 90L520 90M257-89Q259-75 269.50-62.50Q280-50 300-50L358-50Q367-50 373.50-56.50Q380-63 380-72Q380-76 379-79L325-218Q321-228 311.50-239Q302-250 282-250L258-250Q249-250 242.50-243.50Q236-237 236-228L236-226L257-89Z"  horiz-adv-x="566" vert-adv-y="1000"  />

      
      <glyph glyph-name="uni013F" unicode="&#x013F;" d="M520 90Q531 90 539 82Q547 74 547 63L547 27Q547 16 539 8Q531 0 520 0L113 0Q102 0 94 8Q86 16 86 27L86 673Q86 684 94 692Q102 700 113 700L154 700Q165 700 173 692Q181 684 181 673L181 90L520 90M408 332Q408 321 400 313Q392 305 381 305L324 305Q313 305 305 313Q297 321 297 332L297 389Q297 400 305 408Q313 416 324 416L381 416Q392 416 400 408Q408 400 408 389L408 332Z"  horiz-adv-x="566" vert-adv-y="1000"  />

      
      <glyph glyph-name="uni0141" unicode="&#x0141;" d="M533 90Q544 90 552 82Q560 74 560 63L560 27Q560 16 552 8Q544 0 533 0L126 0Q115 0 107 8Q99 16 99 27L99 269L51 251Q43 248 40 248Q31 248 25 254Q19 260 19 269L19 297Q19 322 41 330L99 352L99 673Q99 684 107 692Q115 700 126 700L167 700Q178 700 186 692Q194 684 194 673L194 389L346 449Q353 452 357 452Q366 452 372 446Q378 440 378 431L378 403Q378 378 356 370L194 306L194 90L533 90Z"  horiz-adv-x="579" vert-adv-y="1000"  />

      
      <glyph glyph-name="uni4d" unicode="&#x4d;" d="M397 277L599 668Q605 680 615.50 690Q626 700 643 700L681 700Q692 700 700 692Q708 684 708 673L708 27Q708 16 700 8Q692 0 681 0L640 0Q629 0 621 8Q613 16 613 27L613 501L457 200Q449 185 440 176.50Q431 168 416 168L378 168Q363 168 354 176.50Q345 185 337 200L181 501L181 27Q181 16 173 8Q165 0 154 0L113 0Q102 0 94 8Q86 16 86 27L86 673Q86 684 94 692Q102 700 113 700L151 700Q168 700 178.50 690Q189 680 195 668L397 277Z"  horiz-adv-x="794" vert-adv-y="1000"  />

      
      <glyph glyph-name="uni4e" unicode="&#x4e;" d="M546 0Q532 0 522.50 9.50Q513 19 506 30L181 519L181 27Q181 16 173 8Q165 0 154 0L113 0Q102 0 94 8Q86 16 86 27L86 673Q86 684 94 692Q102 700 113 700L148 700Q162 700 171.50 690.50Q181 681 188 670L513 181L513 673Q513 684 521 692Q529 700 540 700L581 700Q592 700 600 692Q608 684 608 673L608 27Q608 16 600 8Q592 0 581 0L546 0Z"  horiz-adv-x="694" vert-adv-y="1000"  />

      
      <glyph glyph-name="uni0143" unicode="&#x0143;" d="M546 0Q532 0 522.50 9.50Q513 19 506 30L181 519L181 27Q181 16 173 8Q165 0 154 0L113 0Q102 0 94 8Q86 16 86 27L86 673Q86 684 94 692Q102 700 113 700L148 700Q162 700 171.50 690.50Q181 681 188 670L513 181L513 673Q513 684 521 692Q529 700 540 700L581 700Q592 700 600 692Q608 684 608 673L608 27Q608 16 600 8Q592 0 581 0L546 0M380 871Q391 884 398.50 887Q406 890 417 890L496 890Q515 890 515 870Q515 863 510 858L399 767Q391 760 382 755Q373 750 357 750L315 750Q299 750 299 766Q299 774 304 779L380 871Z"  horiz-adv-x="694" vert-adv-y="1000"  />

      
      <glyph glyph-name="uni0147" unicode="&#x0147;" d="M546 0Q532 0 522.50 9.50Q513 19 506 30L181 519L181 27Q181 16 173 8Q165 0 154 0L113 0Q102 0 94 8Q86 16 86 27L86 673Q86 684 94 692Q102 700 113 700L148 700Q162 700 171.50 690.50Q181 681 188 670L513 181L513 673Q513 684 521 692Q529 700 540 700L581 700Q592 700 600 692Q608 684 608 673L608 27Q608 16 600 8Q592 0 581 0L546 0M332 750Q321 750 313 754Q305 758 295 769L203 861Q198 866 198 874Q198 890 214 890L240 890Q250 890 256 887.50Q262 885 271 879L347 828L423 879Q432 885 438 887.50Q444 890 454 890L480 890Q496 890 496 874Q496 866 491 861L399 769Q389 758 381 754Q373 750 362 750L332 750Z"  horiz-adv-x="694" vert-adv-y="1000"  />

      
      <glyph glyph-name="uni0145" unicode="&#x0145;" d="M546 0Q532 0 522.50 9.50Q513 19 506 30L181 519L181 27Q181 16 173 8Q165 0 154 0L113 0Q102 0 94 8Q86 16 86 27L86 673Q86 684 94 692Q102 700 113 700L148 700Q162 700 171.50 690.50Q181 681 188 670L513 181L513 673Q513 684 521 692Q529 700 540 700L581 700Q592 700 600 692Q608 684 608 673L608 27Q608 16 600 8Q592 0 581 0L546 0M287-89Q289-75 299.50-62.50Q310-50 330-50L388-50Q397-50 403.50-56.50Q410-63 410-72Q410-76 409-79L355-218Q351-228 341.50-239Q332-250 312-250L288-250Q279-250 272.50-243.50Q266-237 266-228L266-226L287-89Z"  horiz-adv-x="694" vert-adv-y="1000"  />

      
      <glyph glyph-name="unid1" unicode="&#xd1;" d="M546 0Q532 0 522.50 9.50Q513 19 506 30L181 519L181 27Q181 16 173 8Q165 0 154 0L113 0Q102 0 94 8Q86 16 86 27L86 673Q86 684 94 692Q102 700 113 700L148 700Q162 700 171.50 690.50Q181 681 188 670L513 181L513 673Q513 684 521 692Q529 700 540 700L581 700Q592 700 600 692Q608 684 608 673L608 27Q608 16 600 8Q592 0 581 0L546 0M411 745Q388 745 372.50 750Q357 755 344.50 761Q332 767 321 772Q310 777 297 777Q285 777 280 773Q275 769 272 763.50Q269 758 265.50 754Q262 750 254 750L217 750Q208 750 203 755.50Q198 761 198 769Q198 780 202.50 796.50Q207 813 217.50 828Q228 843 244.50 854Q261 865 284 865Q307 865 322.50 860Q338 855 350 849Q362 843 373 838Q384 833 398 833Q410 833 415 837Q420 841 423 846.50Q426 852 429.50 856Q433 860 441 860L478 860Q487 860 492 854.50Q497 849 497 841Q497 830 492.50 813.50Q488 797 477.50 782Q467 767 450.50 756Q434 745 411 745Z"  horiz-adv-x="694" vert-adv-y="1000"  />

      
      <glyph glyph-name="uni4f" unicode="&#x4f;" d="M60 439Q61 495 79.50 544.50Q98 594 133 630.50Q168 667 219 688.50Q270 710 336 710Q402 710 453 688.50Q504 667 539 630.50Q574 594 592.50 544.50Q611 495 612 439Q615 350 612 261Q610 205 591.50 155.50Q573 106 538 69Q503 32 452.50 11Q402-10 336-10Q270-10 219.50 11Q169 32 134 69Q99 106 80.50 155.50Q62 205 60 261Q57 350 60 439M517 434Q515 481 501.50 516Q488 551 464 574Q440 597 407.50 608.50Q375 620 336 620Q297 620 264.50 608.50Q232 597 208 574Q184 551 170 516Q156 481 155 434Q153 389 153 350Q153 311 155 266Q156 219 170 184Q184 149 208 126Q232 103 264.50 91.50Q297 80 336 80Q375 80 407.50 91.50Q440 103 464 126Q488 149 501.50 184Q515 219 517 266Q519 311 519 350Q519 389 517 434Z"  horiz-adv-x="672" vert-adv-y="1000"  />

      
      <glyph glyph-name="unid3" unicode="&#xd3;" d="M60 439Q61 495 79.50 544.50Q98 594 133 630.50Q168 667 219 688.50Q270 710 336 710Q402 710 453 688.50Q504 667 539 630.50Q574 594 592.50 544.50Q611 495 612 439Q615 350 612 261Q610 205 591.50 155.50Q573 106 538 69Q503 32 452.50 11Q402-10 336-10Q270-10 219.50 11Q169 32 134 69Q99 106 80.50 155.50Q62 205 60 261Q57 350 60 439M517 434Q515 481 501.50 516Q488 551 464 574Q440 597 407.50 608.50Q375 620 336 620Q297 620 264.50 608.50Q232 597 208 574Q184 551 170 516Q156 481 155 434Q153 389 153 350Q153 311 155 266Q156 219 170 184Q184 149 208 126Q232 103 264.50 91.50Q297 80 336 80Q375 80 407.50 91.50Q440 103 464 126Q488 149 501.50 184Q515 219 517 266Q519 311 519 350Q519 389 517 434M372 871Q383 884 390.50 887Q398 890 409 890L488 890Q507 890 507 870Q507 863 502 858L391 767Q383 760 374 755Q365 750 349 750L307 750Q291 750 291 766Q291 774 296 779L372 871Z"  horiz-adv-x="672" vert-adv-y="1000"  />

      
      <glyph glyph-name="uni014E" unicode="&#x014E;" d="M60 439Q61 495 79.50 544.50Q98 594 133 630.50Q168 667 219 688.50Q270 710 336 710Q402 710 453 688.50Q504 667 539 630.50Q574 594 592.50 544.50Q611 495 612 439Q615 350 612 261Q610 205 591.50 155.50Q573 106 538 69Q503 32 452.50 11Q402-10 336-10Q270-10 219.50 11Q169 32 134 69Q99 106 80.50 155.50Q62 205 60 261Q57 350 60 439M517 434Q515 481 501.50 516Q488 551 464 574Q440 597 407.50 608.50Q375 620 336 620Q297 620 264.50 608.50Q232 597 208 574Q184 551 170 516Q156 481 155 434Q153 389 153 350Q153 311 155 266Q156 219 170 184Q184 149 208 126Q232 103 264.50 91.50Q297 80 336 80Q375 80 407.50 91.50Q440 103 464 126Q488 149 501.50 184Q515 219 517 266Q519 311 519 350Q519 389 517 434M336 745Q302 745 277.50 756Q253 767 237.50 785Q222 803 214.50 825.50Q207 848 207 871Q207 879 212 884.50Q217 890 226 890L258 890Q267 890 272 884.50Q277 879 277 871Q277 845 293 828Q309 811 336 811Q363 811 379 828Q395 845 395 871Q395 879 400 884.50Q405 890 414 890L446 890Q455 890 460 884.50Q465 879 465 871Q465 848 457.50 825.50Q450 803 434.50 785Q419 767 394.50 756Q370 745 336 745Z"  horiz-adv-x="672" vert-adv-y="1000"  />

      
      <glyph glyph-name="unid4" unicode="&#xd4;" d="M60 439Q61 495 79.50 544.50Q98 594 133 630.50Q168 667 219 688.50Q270 710 336 710Q402 710 453 688.50Q504 667 539 630.50Q574 594 592.50 544.50Q611 495 612 439Q615 350 612 261Q610 205 591.50 155.50Q573 106 538 69Q503 32 452.50 11Q402-10 336-10Q270-10 219.50 11Q169 32 134 69Q99 106 80.50 155.50Q62 205 60 261Q57 350 60 439M517 434Q515 481 501.50 516Q488 551 464 574Q440 597 407.50 608.50Q375 620 336 620Q297 620 264.50 608.50Q232 597 208 574Q184 551 170 516Q156 481 155 434Q153 389 153 350Q153 311 155 266Q156 219 170 184Q184 149 208 126Q232 103 264.50 91.50Q297 80 336 80Q375 80 407.50 91.50Q440 103 464 126Q488 149 501.50 184Q515 219 517 266Q519 311 519 350Q519 389 517 434M351 890Q362 890 370 886Q378 882 388 871L480 779Q485 774 485 766Q485 750 469 750L443 750Q433 750 427 752.50Q421 755 412 761L336 812L260 761Q251 755 245 752.50Q239 750 229 750L203 750Q187 750 187 766Q187 774 192 779L284 871Q294 882 302 886Q310 890 321 890L351 890Z"  horiz-adv-x="672" vert-adv-y="1000"  />

      
      <glyph glyph-name="unid6" unicode="&#xd6;" d="M60 439Q61 495 79.50 544.50Q98 594 133 630.50Q168 667 219 688.50Q270 710 336 710Q402 710 453 688.50Q504 667 539 630.50Q574 594 592.50 544.50Q611 495 612 439Q615 350 612 261Q610 205 591.50 155.50Q573 106 538 69Q503 32 452.50 11Q402-10 336-10Q270-10 219.50 11Q169 32 134 69Q99 106 80.50 155.50Q62 205 60 261Q57 350 60 439M517 434Q515 481 501.50 516Q488 551 464 574Q440 597 407.50 608.50Q375 620 336 620Q297 620 264.50 608.50Q232 597 208 574Q184 551 170 516Q156 481 155 434Q153 389 153 350Q153 311 155 266Q156 219 170 184Q184 149 208 126Q232 103 264.50 91.50Q297 80 336 80Q375 80 407.50 91.50Q440 103 464 126Q488 149 501.50 184Q515 219 517 266Q519 311 519 350Q519 389 517 434M286 777Q286 766 278 758Q270 750 259 750L202 750Q191 750 183 758Q175 766 175 777L175 834Q175 845 183 853Q191 861 202 861L259 861Q270 861 278 853Q286 845 286 834L286 777M497 777Q497 766 489 758Q481 750 470 750L413 750Q402 750 394 758Q386 766 386 777L386 834Q386 845 394 853Q402 861 413 861L470 861Q481 861 489 853Q497 845 497 834L497 777Z"  horiz-adv-x="672" vert-adv-y="1000"  />

      
      <glyph glyph-name="unid2" unicode="&#xd2;" d="M60 439Q61 495 79.50 544.50Q98 594 133 630.50Q168 667 219 688.50Q270 710 336 710Q402 710 453 688.50Q504 667 539 630.50Q574 594 592.50 544.50Q611 495 612 439Q615 350 612 261Q610 205 591.50 155.50Q573 106 538 69Q503 32 452.50 11Q402-10 336-10Q270-10 219.50 11Q169 32 134 69Q99 106 80.50 155.50Q62 205 60 261Q57 350 60 439M517 434Q515 481 501.50 516Q488 551 464 574Q440 597 407.50 608.50Q375 620 336 620Q297 620 264.50 608.50Q232 597 208 574Q184 551 170 516Q156 481 155 434Q153 389 153 350Q153 311 155 266Q156 219 170 184Q184 149 208 126Q232 103 264.50 91.50Q297 80 336 80Q375 80 407.50 91.50Q440 103 464 126Q488 149 501.50 184Q515 219 517 266Q519 311 519 350Q519 389 517 434M379 779Q384 774 384 766Q384 750 368 750L326 750Q310 750 301 755Q292 760 284 767L173 858Q168 863 168 870Q168 890 187 890L266 890Q277 890 284.50 887Q292 884 303 871L379 779Z"  horiz-adv-x="672" vert-adv-y="1000"  />

      
      <glyph glyph-name="uni0150" unicode="&#x0150;" d="M60 439Q61 495 79.50 544.50Q98 594 133 630.50Q168 667 219 688.50Q270 710 336 710Q402 710 453 688.50Q504 667 539 630.50Q574 594 592.50 544.50Q611 495 612 439Q615 350 612 261Q610 205 591.50 155.50Q573 106 538 69Q503 32 452.50 11Q402-10 336-10Q270-10 219.50 11Q169 32 134 69Q99 106 80.50 155.50Q62 205 60 261Q57 350 60 439M517 434Q515 481 501.50 516Q488 551 464 574Q440 597 407.50 608.50Q375 620 336 620Q297 620 264.50 608.50Q232 597 208 574Q184 551 170 516Q156 481 155 434Q153 389 153 350Q153 311 155 266Q156 219 170 184Q184 149 208 126Q232 103 264.50 91.50Q297 80 336 80Q375 80 407.50 91.50Q440 103 464 126Q488 149 501.50 184Q515 219 517 266Q519 311 519 350Q519 389 517 434M242 871Q247 881 255 885.50Q263 890 279 890L353 890Q373 890 373 871Q373 864 367 858L280 764Q268 750 246 750L213 750Q197 750 197 766Q197 770 198.50 774Q200 778 202 781L242 871M424 871Q429 881 437 885.50Q445 890 461 890L535 890Q555 890 555 871Q555 864 549 858L462 764Q450 750 428 750L395 750Q379 750 379 766Q379 770 380.50 774Q382 778 384 781L424 871Z"  horiz-adv-x="672" vert-adv-y="1000"  />

      
      <glyph glyph-name="uni014C" unicode="&#x014C;" d="M60 439Q61 495 79.50 544.50Q98 594 133 630.50Q168 667 219 688.50Q270 710 336 710Q402 710 453 688.50Q504 667 539 630.50Q574 594 592.50 544.50Q611 495 612 439Q615 350 612 261Q610 205 591.50 155.50Q573 106 538 69Q503 32 452.50 11Q402-10 336-10Q270-10 219.50 11Q169 32 134 69Q99 106 80.50 155.50Q62 205 60 261Q57 350 60 439M517 434Q515 481 501.50 516Q488 551 464 574Q440 597 407.50 608.50Q375 620 336 620Q297 620 264.50 608.50Q232 597 208 574Q184 551 170 516Q156 481 155 434Q153 389 153 350Q153 311 155 266Q156 219 170 184Q184 149 208 126Q232 103 264.50 91.50Q297 80 336 80Q375 80 407.50 91.50Q440 103 464 126Q488 149 501.50 184Q515 219 517 266Q519 311 519 350Q519 389 517 434M222 750Q211 750 203 758Q195 766 195 777L195 813Q195 824 203 832Q211 840 222 840L451 840Q462 840 470 832Q478 824 478 813L478 777Q478 766 470 758Q462 750 451 750L222 750Z"  horiz-adv-x="672" vert-adv-y="1000"  />

      
      <glyph glyph-name="unid8" unicode="&#xd8;" d="M69 434Q70 492 88.50 542.50Q107 593 142 630Q177 667 228 688.50Q279 710 345 710Q402 710 447.50 694Q493 678 527 649.50Q561 621 583 582Q605 543 614 497L648 510Q655 513 659 513Q668 513 674 507Q680 501 680 492L680 464Q680 439 658 431L621 417Q623 377 623 342Q623 307 621 266Q619 208 600.50 157.50Q582 107 547 70Q512 33 461.50 11.50Q411-10 345-10Q288-10 242.50 6Q197 22 163 50Q129 78 107.50 117Q86 156 76 203L40 189Q32 186 29 186Q20 186 14 192Q8 198 8 207L8 235Q8 260 30 268L68 283Q67 322 67 357Q67 392 69 434M164 434Q162 403 162 375.50Q162 348 162 320L524 461Q513 542 465 581Q417 620 345 620Q306 620 273.50 608.50Q241 597 217 574Q193 551 179 516Q165 481 164 434M526 266Q527 297 527.50 324Q528 351 527 380L166 238Q176 157 224.50 118.50Q273 80 345 80Q384 80 416.50 91.50Q449 103 473 126Q497 149 510.50 184Q524 219 526 266Z"  horiz-adv-x="689" vert-adv-y="1000"  />

      
      <glyph glyph-name="uni01FE" unicode="&#x01FE;" d="M373 871Q384 884 391.50 887Q399 890 410 890L489 890Q508 890 508 870Q508 863 503 858L392 767Q384 760 375 755Q366 750 350 750L308 750Q292 750 292 766Q292 774 297 779L373 871M69 434Q70 492 88.50 542.50Q107 593 142 630Q177 667 228 688.50Q279 710 345 710Q402 710 447.50 694Q493 678 527 649.50Q561 621 583 582Q605 543 614 497L648 510Q655 513 659 513Q668 513 674 507Q680 501 680 492L680 464Q680 439 658 431L621 417Q623 377 623 342Q623 307 621 266Q619 208 600.50 157.50Q582 107 547 70Q512 33 461.50 11.50Q411-10 345-10Q288-10 242.50 6Q197 22 163 50Q129 78 107.50 117Q86 156 76 203L40 189Q32 186 29 186Q20 186 14 192Q8 198 8 207L8 235Q8 260 30 268L68 283Q67 322 67 357Q67 392 69 434M164 434Q162 403 162 375.50Q162 348 162 320L524 461Q513 542 465 581Q417 620 345 620Q306 620 273.50 608.50Q241 597 217 574Q193 551 179 516Q165 481 164 434M526 266Q527 297 527.50 324Q528 351 527 380L166 238Q176 157 224.50 118.50Q273 80 345 80Q384 80 416.50 91.50Q449 103 473 126Q497 149 510.50 184Q524 219 526 266Z"  horiz-adv-x="689" vert-adv-y="1000"  />

      
      <glyph glyph-name="unid5" unicode="&#xd5;" d="M60 439Q61 495 79.50 544.50Q98 594 133 630.50Q168 667 219 688.50Q270 710 336 710Q402 710 453 688.50Q504 667 539 630.50Q574 594 592.50 544.50Q611 495 612 439Q615 350 612 261Q610 205 591.50 155.50Q573 106 538 69Q503 32 452.50 11Q402-10 336-10Q270-10 219.50 11Q169 32 134 69Q99 106 80.50 155.50Q62 205 60 261Q57 350 60 439M517 434Q515 481 501.50 516Q488 551 464 574Q440 597 407.50 608.50Q375 620 336 620Q297 620 264.50 608.50Q232 597 208 574Q184 551 170 516Q156 481 155 434Q153 389 153 350Q153 311 155 266Q156 219 170 184Q184 149 208 126Q232 103 264.50 91.50Q297 80 336 80Q375 80 407.50 91.50Q440 103 464 126Q488 149 501.50 184Q515 219 517 266Q519 311 519 350Q519 389 517 434M400 745Q377 745 361.50 750Q346 755 333.50 761Q321 767 310 772Q299 777 286 777Q274 777 269 773Q264 769 261 763.50Q258 758 254.50 754Q251 750 243 750L206 750Q197 750 192 755.50Q187 761 187 769Q187 780 191.50 796.50Q196 813 206.50 828Q217 843 233.50 854Q250 865 273 865Q296 865 311.50 860Q327 855 339 849Q351 843 362 838Q373 833 387 833Q399 833 404 837Q409 841 412 846.50Q415 852 418.50 856Q422 860 430 860L467 860Q476 860 481 854.50Q486 849 486 841Q486 830 481.50 813.50Q477 797 466.50 782Q456 767 439.50 756Q423 745 400 745Z"  horiz-adv-x="672" vert-adv-y="1000"  />

      
      <glyph glyph-name="uni0152" unicode="&#x0152;" d="M845 90Q856 90 864 82Q872 74 872 63L872 27Q872 16 864 8Q856 0 845 0L340 0Q278 0 227 18.50Q176 37 139 72Q102 107 81 157.50Q60 208 59 271Q58 316 58 350Q58 384 59 429Q60 492 81.50 542.50Q103 593 141 628Q179 663 231.50 681.50Q284 700 346 700L837 700Q848 700 856 692Q864 684 864 673L864 637Q864 626 856 618Q848 610 837 610L509 610L509 399L815 399Q826 399 834 391Q842 383 842 372L842 336Q842 325 834 317Q826 309 815 309L509 309L509 90L845 90M154 424Q154 401 153.50 383.50Q153 366 153 349.50Q153 333 153.50 315.50Q154 298 154 276Q155 240 164.50 206.50Q174 173 196 147Q218 121 254.50 105.50Q291 90 345 90L414 90L414 610L350 610Q296 610 259 594.50Q222 579 199 553Q176 527 165.50 493.50Q155 460 154 424Z"  horiz-adv-x="920" vert-adv-y="1000"  />

      
      <glyph glyph-name="uni50" unicode="&#x50;" d="M365 700Q414 700 457.50 687.50Q501 675 534 649Q567 623 586.50 583Q606 543 606 488Q606 433 586.50 392.50Q567 352 534 325Q501 298 457.50 285Q414 272 365 272L181 272L181 27Q181 16 173 8Q165 0 154 0L113 0Q102 0 94 8Q86 16 86 27L86 673Q86 684 94 692Q102 700 113 700L365 700M181 362L360 362Q432 362 471.50 393Q511 424 511 488Q511 552 471.50 581Q432 610 360 610L181 610L181 362Z"  horiz-adv-x="640" vert-adv-y="1000"  />

      
      <glyph glyph-name="uni51" unicode="&#x51;" d="M60 439Q61 495 79.50 544.50Q98 594 133 630.50Q168 667 219 688.50Q270 710 336 710Q402 710 453 688.50Q504 667 539 630.50Q574 594 592.50 544.50Q611 495 612 439Q615 350 612 261Q610 204 590.50 154Q571 104 535 67L609-34Q610-36 611-38.50Q612-41 612-44Q612-53 606.50-59Q601-65 592-65L545-65Q526-65 517-56.50Q508-48 503-42L461 15Q406-10 336-10Q270-10 219.50 11Q169 32 134 69Q99 106 80.50 155.50Q62 205 60 261Q57 350 60 439M517 434Q515 481 501.50 516Q488 551 464 574Q440 597 407.50 608.50Q375 620 336 620Q297 620 264.50 608.50Q232 597 208 574Q184 551 170 516Q156 481 155 434Q153 389 153 350Q153 311 155 266Q156 219 170 184Q184 149 208 126Q232 103 264.50 91.50Q297 80 336 80Q375 80 407.50 91.50Q440 103 464 126Q488 149 501.50 184Q515 219 517 266Q519 311 519 350Q519 389 517 434Z"  horiz-adv-x="672" vert-adv-y="1000"  />

      
      <glyph glyph-name="uni52" unicode="&#x52;" d="M355 700Q404 700 447.50 688Q491 676 524 651Q557 626 576.50 587Q596 548 596 493Q596 412 555.50 364Q515 316 452 296L603 33Q606 27 606 22Q606 13 599.50 6.50Q593 0 584 0L541 0Q521 0 511.50 10Q502 20 498 27L353 282L181 282L181 27Q181 16 173 8Q165 0 154 0L113 0Q102 0 94 8Q86 16 86 27L86 673Q86 684 94 692Q102 700 113 700L355 700M181 372L350 372Q422 372 461.50 400.50Q501 429 501 493Q501 557 461.50 583.50Q422 610 350 610L181 610L181 372Z"  horiz-adv-x="651" vert-adv-y="1000"  />

      
      <glyph glyph-name="uni0154" unicode="&#x0154;" d="M355 700Q404 700 447.50 688Q491 676 524 651Q557 626 576.50 587Q596 548 596 493Q596 412 555.50 364Q515 316 452 296L603 33Q606 27 606 22Q606 13 599.50 6.50Q593 0 584 0L541 0Q521 0 511.50 10Q502 20 498 27L353 282L181 282L181 27Q181 16 173 8Q165 0 154 0L113 0Q102 0 94 8Q86 16 86 27L86 673Q86 684 94 692Q102 700 113 700L355 700M181 372L350 372Q422 372 461.50 400.50Q501 429 501 493Q501 557 461.50 583.50Q422 610 350 610L181 610L181 372M321 871Q332 884 339.50 887Q347 890 358 890L437 890Q456 890 456 870Q456 863 451 858L340 767Q332 760 323 755Q314 750 298 750L256 750Q240 750 240 766Q240 774 245 779L321 871Z"  horiz-adv-x="651" vert-adv-y="1000"  />

      
      <glyph glyph-name="uni0158" unicode="&#x0158;" d="M355 700Q404 700 447.50 688Q491 676 524 651Q557 626 576.50 587Q596 548 596 493Q596 412 555.50 364Q515 316 452 296L603 33Q606 27 606 22Q606 13 599.50 6.50Q593 0 584 0L541 0Q521 0 511.50 10Q502 20 498 27L353 282L181 282L181 27Q181 16 173 8Q165 0 154 0L113 0Q102 0 94 8Q86 16 86 27L86 673Q86 684 94 692Q102 700 113 700L355 700M181 372L350 372Q422 372 461.50 400.50Q501 429 501 493Q501 557 461.50 583.50Q422 610 350 610L181 610L181 372M295 750Q284 750 276 754Q268 758 258 769L166 861Q161 866 161 874Q161 890 177 890L203 890Q213 890 219 887.50Q225 885 234 879L310 828L386 879Q395 885 401 887.50Q407 890 417 890L443 890Q459 890 459 874Q459 866 454 861L362 769Q352 758 344 754Q336 750 325 750L295 750Z"  horiz-adv-x="651" vert-adv-y="1000"  />

      
      <glyph glyph-name="uni0156" unicode="&#x0156;" d="M355 700Q404 700 447.50 688Q491 676 524 651Q557 626 576.50 587Q596 548 596 493Q596 412 555.50 364Q515 316 452 296L603 33Q606 27 606 22Q606 13 599.50 6.50Q593 0 584 0L541 0Q521 0 511.50 10Q502 20 498 27L353 282L181 282L181 27Q181 16 173 8Q165 0 154 0L113 0Q102 0 94 8Q86 16 86 27L86 673Q86 684 94 692Q102 700 113 700L355 700M181 372L350 372Q422 372 461.50 400.50Q501 429 501 493Q501 557 461.50 583.50Q422 610 350 610L181 610L181 372M257-89Q259-75 269.50-62.50Q280-50 300-50L358-50Q367-50 373.50-56.50Q380-63 380-72Q380-76 379-79L325-218Q321-228 311.50-239Q302-250 282-250L258-250Q249-250 242.50-243.50Q236-237 236-228L236-226L257-89Z"  horiz-adv-x="651" vert-adv-y="1000"  />

      
      <glyph glyph-name="uni53" unicode="&#x53;" d="M301 710Q362 710 408.50 691Q455 672 487.50 644.50Q520 617 537 585.50Q554 554 555 529Q556 520 549 513.50Q542 507 533 507L492 507Q481 507 474.50 511Q468 515 461 529Q456 539 444.50 554.50Q433 570 413.50 584.50Q394 599 366 609.50Q338 620 301 620Q273 620 247.50 613.50Q222 607 202 594Q182 581 170 561.50Q158 542 158 516Q158 490 169.50 472Q181 454 206.50 439.50Q232 425 271 413Q310 401 366 386Q423 371 462.50 353Q502 335 527 312.50Q552 290 563.50 260.50Q575 231 575 194Q575 149 555.50 111.50Q536 74 501 47Q466 20 416.50 5Q367-10 306-10Q248-10 199 7Q150 24 115 51Q80 78 59.50 111Q39 144 38 176Q38 185 44.50 191.50Q51 198 60 198L101 198Q111 198 118.50 194Q126 190 132 176Q138 162 150.50 145.50Q163 129 184 114.50Q205 100 235 90Q265 80 306 80Q341 80 372.50 88Q404 96 428 111Q452 126 466 147Q480 168 480 194Q480 220 464 238.50Q448 257 418 272Q388 287 344.50 299.50Q301 312 246 326Q196 339 161 357.50Q126 376 104 400Q82 424 72.50 453Q63 482 63 516Q63 553 78 588Q93 623 122.50 650Q152 677 196.50 693.50Q241 710 301 710Z"  horiz-adv-x="618" vert-adv-y="1000"  />

      
      <glyph glyph-name="uni015A" unicode="&#x015A;" d="M301 710Q362 710 408.50 691Q455 672 487.50 644.50Q520 617 537 585.50Q554 554 555 529Q556 520 549 513.50Q542 507 533 507L492 507Q481 507 474.50 511Q468 515 461 529Q456 539 444.50 554.50Q433 570 413.50 584.50Q394 599 366 609.50Q338 620 301 620Q273 620 247.50 613.50Q222 607 202 594Q182 581 170 561.50Q158 542 158 516Q158 490 169.50 472Q181 454 206.50 439.50Q232 425 271 413Q310 401 366 386Q423 371 462.50 353Q502 335 527 312.50Q552 290 563.50 260.50Q575 231 575 194Q575 149 555.50 111.50Q536 74 501 47Q466 20 416.50 5Q367-10 306-10Q248-10 199 7Q150 24 115 51Q80 78 59.50 111Q39 144 38 176Q38 185 44.50 191.50Q51 198 60 198L101 198Q111 198 118.50 194Q126 190 132 176Q138 162 150.50 145.50Q163 129 184 114.50Q205 100 235 90Q265 80 306 80Q341 80 372.50 88Q404 96 428 111Q452 126 466 147Q480 168 480 194Q480 220 464 238.50Q448 257 418 272Q388 287 344.50 299.50Q301 312 246 326Q196 339 161 357.50Q126 376 104 400Q82 424 72.50 453Q63 482 63 516Q63 553 78 588Q93 623 122.50 650Q152 677 196.50 693.50Q241 710 301 710M339 871Q350 884 357.50 887Q365 890 376 890L455 890Q474 890 474 870Q474 863 469 858L358 767Q350 760 341 755Q332 750 316 750L274 750Q258 750 258 766Q258 774 263 779L339 871Z"  horiz-adv-x="618" vert-adv-y="1000"  />

      
      <glyph glyph-name="uni0160" unicode="&#x0160;" d="M301 710Q362 710 408.50 691Q455 672 487.50 644.50Q520 617 537 585.50Q554 554 555 529Q556 520 549 513.50Q542 507 533 507L492 507Q481 507 474.50 511Q468 515 461 529Q456 539 444.50 554.50Q433 570 413.50 584.50Q394 599 366 609.50Q338 620 301 620Q273 620 247.50 613.50Q222 607 202 594Q182 581 170 561.50Q158 542 158 516Q158 490 169.50 472Q181 454 206.50 439.50Q232 425 271 413Q310 401 366 386Q423 371 462.50 353Q502 335 527 312.50Q552 290 563.50 260.50Q575 231 575 194Q575 149 555.50 111.50Q536 74 501 47Q466 20 416.50 5Q367-10 306-10Q248-10 199 7Q150 24 115 51Q80 78 59.50 111Q39 144 38 176Q38 185 44.50 191.50Q51 198 60 198L101 198Q111 198 118.50 194Q126 190 132 176Q138 162 150.50 145.50Q163 129 184 114.50Q205 100 235 90Q265 80 306 80Q341 80 372.50 88Q404 96 428 111Q452 126 466 147Q480 168 480 194Q480 220 464 238.50Q448 257 418 272Q388 287 344.50 299.50Q301 312 246 326Q196 339 161 357.50Q126 376 104 400Q82 424 72.50 453Q63 482 63 516Q63 553 78 588Q93 623 122.50 650Q152 677 196.50 693.50Q241 710 301 710M291 750Q280 750 272 754Q264 758 254 769L162 861Q157 866 157 874Q157 890 173 890L199 890Q209 890 215 887.50Q221 885 230 879L306 828L382 879Q391 885 397 887.50Q403 890 413 890L439 890Q455 890 455 874Q455 866 450 861L358 769Q348 758 340 754Q332 750 321 750L291 750Z"  horiz-adv-x="618" vert-adv-y="1000"  />

      
      <glyph glyph-name="uni015E" unicode="&#x015E;" d="M301 710Q362 710 408.50 691Q455 672 487.50 644.50Q520 617 537 585.50Q554 554 555 529Q556 520 549 513.50Q542 507 533 507L492 507Q481 507 474.50 511Q468 515 461 529Q456 539 444.50 554.50Q433 570 413.50 584.50Q394 599 366 609.50Q338 620 301 620Q273 620 247.50 613.50Q222 607 202 594Q182 581 170 561.50Q158 542 158 516Q158 490 169.50 472Q181 454 206.50 439.50Q232 425 271 413Q310 401 366 386Q423 371 462.50 353Q502 335 527 312.50Q552 290 563.50 260.50Q575 231 575 194Q575 149 556 112Q537 75 502 48Q467 21 418 5.50Q369-10 309-10L288-56Q301-48 323-48Q356-48 377.50-72Q399-96 399-132Q399-168 376-194Q353-220 300-220Q282-220 265.50-214.50Q249-209 237-201Q225-193 220.50-184.50Q216-176 223-169L237-156Q245-149 250.50-150Q256-151 262.50-155.50Q269-160 277.50-164.50Q286-169 300-169Q343-169 343-134Q343-99 300-99Q288-99 280-101.50Q272-104 266.50-106Q261-108 256.50-107.50Q252-107 246-101L229-83Q224-77 226-69Q228-61 231-53L251-5Q204 2 165 21Q126 40 98 65Q70 90 54.50 119Q39 148 38 176Q38 185 44.50 191.50Q51 198 60 198L101 198Q111 198 118.50 194Q126 190 132 176Q138 162 150.50 145.50Q163 129 184 114.50Q205 100 235 90Q265 80 306 80Q341 80 372.50 88Q404 96 428 111Q452 126 466 147Q480 168 480 194Q480 220 464 238.50Q448 257 418 272Q388 287 344.50 299.50Q301 312 246 326Q196 339 161 357.50Q126 376 104 400Q82 424 72.50 453Q63 482 63 516Q63 553 78 588Q93 623 122.50 650Q152 677 196.50 693.50Q241 710 301 710Z"  horiz-adv-x="618" vert-adv-y="1000"  />

      
      <glyph glyph-name="uni015C" unicode="&#x015C;" d="M301 710Q362 710 408.50 691Q455 672 487.50 644.50Q520 617 537 585.50Q554 554 555 529Q556 520 549 513.50Q542 507 533 507L492 507Q481 507 474.50 511Q468 515 461 529Q456 539 444.50 554.50Q433 570 413.50 584.50Q394 599 366 609.50Q338 620 301 620Q273 620 247.50 613.50Q222 607 202 594Q182 581 170 561.50Q158 542 158 516Q158 490 169.50 472Q181 454 206.50 439.50Q232 425 271 413Q310 401 366 386Q423 371 462.50 353Q502 335 527 312.50Q552 290 563.50 260.50Q575 231 575 194Q575 149 555.50 111.50Q536 74 501 47Q466 20 416.50 5Q367-10 306-10Q248-10 199 7Q150 24 115 51Q80 78 59.50 111Q39 144 38 176Q38 185 44.50 191.50Q51 198 60 198L101 198Q111 198 118.50 194Q126 190 132 176Q138 162 150.50 145.50Q163 129 184 114.50Q205 100 235 90Q265 80 306 80Q341 80 372.50 88Q404 96 428 111Q452 126 466 147Q480 168 480 194Q480 220 464 238.50Q448 257 418 272Q388 287 344.50 299.50Q301 312 246 326Q196 339 161 357.50Q126 376 104 400Q82 424 72.50 453Q63 482 63 516Q63 553 78 588Q93 623 122.50 650Q152 677 196.50 693.50Q241 710 301 710M321 890Q332 890 340 886Q348 882 358 871L450 779Q455 774 455 766Q455 750 439 750L413 750Q403 750 397 752.50Q391 755 382 761L306 812L230 761Q221 755 215 752.50Q209 750 199 750L173 750Q157 750 157 766Q157 774 162 779L254 871Q264 882 272 886Q280 890 291 890L321 890Z"  horiz-adv-x="618" vert-adv-y="1000"  />

      
      <glyph glyph-name="uni0218" unicode="&#x0218;" d="M301 710Q362 710 408.50 691Q455 672 487.50 644.50Q520 617 537 585.50Q554 554 555 529Q556 520 549 513.50Q542 507 533 507L492 507Q481 507 474.50 511Q468 515 461 529Q456 539 444.50 554.50Q433 570 413.50 584.50Q394 599 366 609.50Q338 620 301 620Q273 620 247.50 613.50Q222 607 202 594Q182 581 170 561.50Q158 542 158 516Q158 490 169.50 472Q181 454 206.50 439.50Q232 425 271 413Q310 401 366 386Q423 371 462.50 353Q502 335 527 312.50Q552 290 563.50 260.50Q575 231 575 194Q575 149 555.50 111.50Q536 74 501 47Q466 20 416.50 5Q367-10 306-10Q248-10 199 7Q150 24 115 51Q80 78 59.50 111Q39 144 38 176Q38 185 44.50 191.50Q51 198 60 198L101 198Q111 198 118.50 194Q126 190 132 176Q138 162 150.50 145.50Q163 129 184 114.50Q205 100 235 90Q265 80 306 80Q341 80 372.50 88Q404 96 428 111Q452 126 466 147Q480 168 480 194Q480 220 464 238.50Q448 257 418 272Q388 287 344.50 299.50Q301 312 246 326Q196 339 161 357.50Q126 376 104 400Q82 424 72.50 453Q63 482 63 516Q63 553 78 588Q93 623 122.50 650Q152 677 196.50 693.50Q241 710 301 710M243-89Q245-75 255.50-62.50Q266-50 286-50L344-50Q353-50 359.50-56.50Q366-63 366-72Q366-76 365-79L311-218Q307-228 297.50-239Q288-250 268-250L244-250Q235-250 228.50-243.50Q222-237 222-228L222-226L243-89Z"  horiz-adv-x="618" vert-adv-y="1000"  />

      
      <glyph glyph-name="uni54" unicode="&#x54;" d="M519 700Q530 700 538 692Q546 684 546 673L546 637Q546 626 538 618Q530 610 519 610L332 610L332 27Q332 16 324 8Q316 0 305 0L264 0Q253 0 245 8Q237 16 237 27L237 610L50 610Q39 610 31 618Q23 626 23 637L23 673Q23 684 31 692Q39 700 50 700L519 700Z"  horiz-adv-x="569" vert-adv-y="1000"  />

      
      <glyph glyph-name="uni0166" unicode="&#x0166;" d="M524 700Q535 700 543 692Q551 684 551 673L551 637Q551 626 543 618Q535 610 524 610L337 610L337 413L444 413Q455 413 463 405Q471 397 471 386L471 355Q471 344 463 336Q455 328 444 328L337 328L337 27Q337 16 329 8Q321 0 310 0L269 0Q258 0 250 8Q242 16 242 27L242 328L135 328Q124 328 116 336Q108 344 108 355L108 386Q108 397 116 405Q124 413 135 413L242 413L242 610L55 610Q44 610 36 618Q28 626 28 637L28 673Q28 684 36 692Q44 700 55 700L524 700Z"  horiz-adv-x="579" vert-adv-y="1000"  />

      
      <glyph glyph-name="uni0164" unicode="&#x0164;" d="M519 700Q530 700 538 692Q546 684 546 673L546 637Q546 626 538 618Q530 610 519 610L332 610L332 27Q332 16 324 8Q316 0 305 0L264 0Q253 0 245 8Q237 16 237 27L237 610L50 610Q39 610 31 618Q23 626 23 637L23 673Q23 684 31 692Q39 700 50 700L519 700M269 750Q258 750 250 754Q242 758 232 769L140 861Q135 866 135 874Q135 890 151 890L177 890Q187 890 193 887.50Q199 885 208 879L284 828L360 879Q369 885 375 887.50Q381 890 391 890L417 890Q433 890 433 874Q433 866 428 861L336 769Q326 758 318 754Q310 750 299 750L269 750Z"  horiz-adv-x="569" vert-adv-y="1000"  />

      
      <glyph glyph-name="uni0162" unicode="&#x0162;" d="M519 700Q530 700 538 692Q546 684 546 673L546 637Q546 626 538 618Q530 610 519 610L332 610L332 27Q332 16 324 8Q316 0 305 0L264 0Q253 0 245 8Q237 16 237 27L237 610L50 610Q39 610 31 618Q23 626 23 637L23 673Q23 684 31 692Q39 700 50 700L519 700M221-89Q223-75 233.50-62.50Q244-50 264-50L322-50Q331-50 337.50-56.50Q344-63 344-72Q344-76 343-79L289-218Q285-228 275.50-239Q266-250 246-250L222-250Q213-250 206.50-243.50Q200-237 200-228L200-226L221-89Z"  horiz-adv-x="569" vert-adv-y="1000"  />

      
      <glyph glyph-name="uni55" unicode="&#x55;" d="M591 700Q602 700 610 692Q618 684 618 673L618 273Q618 211 602.50 159.50Q587 108 554.50 70Q522 32 471 11Q420-10 349-10Q277-10 226 11Q175 32 142.50 70Q110 108 95 159.50Q80 211 80 273L80 673Q80 684 88 692Q96 700 107 700L148 700Q159 700 167 692Q175 684 175 673L175 268Q175 170 221 122.50Q267 75 349 75Q431 75 477.50 122.50Q524 170 524 268L524 673Q524 684 532 692Q540 700 551 700L591 700Z"  horiz-adv-x="698" vert-adv-y="1000"  />

      
      <glyph glyph-name="unida" unicode="&#xda;" d="M591 700Q602 700 610 692Q618 684 618 673L618 273Q618 211 602.50 159.50Q587 108 554.50 70Q522 32 471 11Q420-10 349-10Q277-10 226 11Q175 32 142.50 70Q110 108 95 159.50Q80 211 80 273L80 673Q80 684 88 692Q96 700 107 700L148 700Q159 700 167 692Q175 684 175 673L175 268Q175 170 221 122.50Q267 75 349 75Q431 75 477.50 122.50Q524 170 524 268L524 673Q524 684 532 692Q540 700 551 700L591 700M383 871Q394 884 401.50 887Q409 890 420 890L499 890Q518 890 518 870Q518 863 513 858L402 767Q394 760 385 755Q376 750 360 750L318 750Q302 750 302 766Q302 774 307 779L383 871Z"  horiz-adv-x="698" vert-adv-y="1000"  />

      
      <glyph glyph-name="uni016C" unicode="&#x016C;" d="M591 700Q602 700 610 692Q618 684 618 673L618 273Q618 211 602.50 159.50Q587 108 554.50 70Q522 32 471 11Q420-10 349-10Q277-10 226 11Q175 32 142.50 70Q110 108 95 159.50Q80 211 80 273L80 673Q80 684 88 692Q96 700 107 700L148 700Q159 700 167 692Q175 684 175 673L175 268Q175 170 221 122.50Q267 75 349 75Q431 75 477.50 122.50Q524 170 524 268L524 673Q524 684 532 692Q540 700 551 700L591 700M349 745Q315 745 290.50 756Q266 767 250.50 785Q235 803 227.50 825.50Q220 848 220 871Q220 879 225 884.50Q230 890 239 890L271 890Q280 890 285 884.50Q290 879 290 871Q290 845 306 828Q322 811 349 811Q376 811 392 828Q408 845 408 871Q408 879 413 884.50Q418 890 427 890L459 890Q468 890 473 884.50Q478 879 478 871Q478 848 470.50 825.50Q463 803 447.50 785Q432 767 407.50 756Q383 745 349 745Z"  horiz-adv-x="698" vert-adv-y="1000"  />

      
      <glyph glyph-name="unidb" unicode="&#xdb;" d="M591 700Q602 700 610 692Q618 684 618 673L618 273Q618 211 602.50 159.50Q587 108 554.50 70Q522 32 471 11Q420-10 349-10Q277-10 226 11Q175 32 142.50 70Q110 108 95 159.50Q80 211 80 273L80 673Q80 684 88 692Q96 700 107 700L148 700Q159 700 167 692Q175 684 175 673L175 268Q175 170 221 122.50Q267 75 349 75Q431 75 477.50 122.50Q524 170 524 268L524 673Q524 684 532 692Q540 700 551 700L591 700M364 890Q375 890 383 886Q391 882 401 871L493 779Q498 774 498 766Q498 750 482 750L456 750Q446 750 440 752.50Q434 755 425 761L349 812L273 761Q264 755 258 752.50Q252 750 242 750L216 750Q200 750 200 766Q200 774 205 779L297 871Q307 882 315 886Q323 890 334 890L364 890Z"  horiz-adv-x="698" vert-adv-y="1000"  />

      
      <glyph glyph-name="unidc" unicode="&#xdc;" d="M591 700Q602 700 610 692Q618 684 618 673L618 273Q618 211 602.50 159.50Q587 108 554.50 70Q522 32 471 11Q420-10 349-10Q277-10 226 11Q175 32 142.50 70Q110 108 95 159.50Q80 211 80 273L80 673Q80 684 88 692Q96 700 107 700L148 700Q159 700 167 692Q175 684 175 673L175 268Q175 170 221 122.50Q267 75 349 75Q431 75 477.50 122.50Q524 170 524 268L524 673Q524 684 532 692Q540 700 551 700L591 700M299 777Q299 766 291 758Q283 750 272 750L215 750Q204 750 196 758Q188 766 188 777L188 834Q188 845 196 853Q204 861 215 861L272 861Q283 861 291 853Q299 845 299 834L299 777M510 777Q510 766 502 758Q494 750 483 750L426 750Q415 750 407 758Q399 766 399 777L399 834Q399 845 407 853Q415 861 426 861L483 861Q494 861 502 853Q510 845 510 834L510 777Z"  horiz-adv-x="698" vert-adv-y="1000"  />

      
      <glyph glyph-name="unid9" unicode="&#xd9;" d="M591 700Q602 700 610 692Q618 684 618 673L618 273Q618 211 602.50 159.50Q587 108 554.50 70Q522 32 471 11Q420-10 349-10Q277-10 226 11Q175 32 142.50 70Q110 108 95 159.50Q80 211 80 273L80 673Q80 684 88 692Q96 700 107 700L148 700Q159 700 167 692Q175 684 175 673L175 268Q175 170 221 122.50Q267 75 349 75Q431 75 477.50 122.50Q524 170 524 268L524 673Q524 684 532 692Q540 700 551 700L591 700M396 779Q401 774 401 766Q401 750 385 750L343 750Q327 750 318 755Q309 760 301 767L190 858Q185 863 185 870Q185 890 204 890L283 890Q294 890 301.50 887Q309 884 320 871L396 779Z"  horiz-adv-x="698" vert-adv-y="1000"  />

      
      <glyph glyph-name="uni0170" unicode="&#x0170;" d="M591 700Q602 700 610 692Q618 684 618 673L618 273Q618 211 602.50 159.50Q587 108 554.50 70Q522 32 471 11Q420-10 349-10Q277-10 226 11Q175 32 142.50 70Q110 108 95 159.50Q80 211 80 273L80 673Q80 684 88 692Q96 700 107 700L148 700Q159 700 167 692Q175 684 175 673L175 268Q175 170 221 122.50Q267 75 349 75Q431 75 477.50 122.50Q524 170 524 268L524 673Q524 684 532 692Q540 700 551 700L591 700M247 871Q252 881 260 885.50Q268 890 284 890L358 890Q378 890 378 871Q378 864 372 858L285 764Q273 750 251 750L218 750Q202 750 202 766Q202 770 203.50 774Q205 778 207 781L247 871M429 871Q434 881 442 885.50Q450 890 466 890L540 890Q560 890 560 871Q560 864 554 858L467 764Q455 750 433 750L400 750Q384 750 384 766Q384 770 385.50 774Q387 778 389 781L429 871Z"  horiz-adv-x="698" vert-adv-y="1000"  />

      
      <glyph glyph-name="uni016A" unicode="&#x016A;" d="M591 700Q602 700 610 692Q618 684 618 673L618 273Q618 211 602.50 159.50Q587 108 554.50 70Q522 32 471 11Q420-10 349-10Q277-10 226 11Q175 32 142.50 70Q110 108 95 159.50Q80 211 80 273L80 673Q80 684 88 692Q96 700 107 700L148 700Q159 700 167 692Q175 684 175 673L175 268Q175 170 221 122.50Q267 75 349 75Q431 75 477.50 122.50Q524 170 524 268L524 673Q524 684 532 692Q540 700 551 700L591 700M235 750Q224 750 216 758Q208 766 208 777L208 813Q208 824 216 832Q224 840 235 840L464 840Q475 840 483 832Q491 824 491 813L491 777Q491 766 483 758Q475 750 464 750L235 750Z"  horiz-adv-x="698" vert-adv-y="1000"  />

      
      <glyph glyph-name="uni0172" unicode="&#x0172;" d="M591 700Q602 700 610 692Q618 684 618 673L618 273Q618 219 606 172.50Q594 126 569 90Q544 54 505.50 29.50Q467 5 414-4Q384-9 369.50-24.50Q355-40 355-74Q355-148 421-148L436-148Q458-148 458-170L458-198Q458-220 436-220L417-220Q387-220 360.50-210.50Q334-201 315-182.50Q296-164 285-137Q274-110 274-74Q274-54 277.50-37Q281-20 287-5Q232 4 192.50 28Q153 52 128 88.50Q103 125 91.50 172Q80 219 80 273L80 673Q80 684 88 692Q96 700 107 700L148 700Q159 700 167 692Q175 684 175 673L175 268Q175 170 221 122.50Q267 75 349 75Q431 75 477.50 122.50Q524 170 524 268L524 673Q524 684 532 692Q540 700 551 700L591 700Z"  horiz-adv-x="698" vert-adv-y="1000"  />

      
      <glyph glyph-name="uni016E" unicode="&#x016E;" d="M591 700Q602 700 610 692Q618 684 618 673L618 273Q618 211 602.50 159.50Q587 108 554.50 70Q522 32 471 11Q420-10 349-10Q277-10 226 11Q175 32 142.50 70Q110 108 95 159.50Q80 211 80 273L80 673Q80 684 88 692Q96 700 107 700L148 700Q159 700 167 692Q175 684 175 673L175 268Q175 170 221 122.50Q267 75 349 75Q431 75 477.50 122.50Q524 170 524 268L524 673Q524 684 532 692Q540 700 551 700L591 700M319 820Q319 807 327.50 798.50Q336 790 349 790Q362 790 370.50 798.50Q379 807 379 820Q379 833 370.50 841.50Q362 850 349 850Q336 850 327.50 841.50Q319 833 319 820M264 820Q264 855 289 877.50Q314 900 349 900Q384 900 409 877.50Q434 855 434 820Q434 785 409 762.50Q384 740 349 740Q314 740 289 762.50Q264 785 264 820Z"  horiz-adv-x="698" vert-adv-y="1000"  />

      
      <glyph glyph-name="uni0168" unicode="&#x0168;" d="M591 700Q602 700 610 692Q618 684 618 673L618 273Q618 211 602.50 159.50Q587 108 554.50 70Q522 32 471 11Q420-10 349-10Q277-10 226 11Q175 32 142.50 70Q110 108 95 159.50Q80 211 80 273L80 673Q80 684 88 692Q96 700 107 700L148 700Q159 700 167 692Q175 684 175 673L175 268Q175 170 221 122.50Q267 75 349 75Q431 75 477.50 122.50Q524 170 524 268L524 673Q524 684 532 692Q540 700 551 700L591 700M413 745Q390 745 374.50 750Q359 755 346.50 761Q334 767 323 772Q312 777 299 777Q287 777 282 773Q277 769 274 763.50Q271 758 267.50 754Q264 750 256 750L219 750Q210 750 205 755.50Q200 761 200 769Q200 780 204.50 796.50Q209 813 219.50 828Q230 843 246.50 854Q263 865 286 865Q309 865 324.50 860Q340 855 352 849Q364 843 375 838Q386 833 400 833Q412 833 417 837Q422 841 425 846.50Q428 852 431.50 856Q435 860 443 860L480 860Q489 860 494 854.50Q499 849 499 841Q499 830 494.50 813.50Q490 797 479.50 782Q469 767 452.50 756Q436 745 413 745Z"  horiz-adv-x="698" vert-adv-y="1000"  />

      
      <glyph glyph-name="uni56" unicode="&#x56;" d="M516 675Q519 683 527 691.50Q535 700 555 700L592 700Q601 700 607.50 693.50Q614 687 614 678Q614 673 612 668L396 40Q390 22 376.50 11Q363 0 343 0L303 0Q283 0 270 11Q257 22 251 40L34 668Q32 673 32 678Q32 687 38.50 693.50Q45 700 54 700L91 700Q111 700 119 691.50Q127 683 130 675L323 100L516 675Z"  horiz-adv-x="647" vert-adv-y="1000"  />

      
      <glyph glyph-name="uni57" unicode="&#x57;" d="M413 545Q431 545 438 534Q445 523 447 516L557 120L659 673Q662 688 671 694Q680 700 690 700L730 700Q739 700 745.50 693.50Q752 687 752 678Q752 675 751 670L628 52Q623 27 613 13.50Q603 0 579 0L539 0Q516 0 505 14.50Q494 29 488 52L396 386L304 52Q298 29 287 14.50Q276 0 253 0L213 0Q189 0 179 13.50Q169 27 164 52L41 670Q40 675 40 678Q40 687 46.50 693.50Q53 700 62 700L102 700Q112 700 121 694Q130 688 133 673L235 120L345 516Q347 523 354 534Q361 545 379 545L413 545L413 545Z"  horiz-adv-x="792" vert-adv-y="1000"  />

      
      <glyph glyph-name="uni1E82" unicode="&#x1E82;" d="M413 545Q431 545 438 534Q445 523 447 516L557 120L659 673Q662 688 671 694Q680 700 690 700L730 700Q739 700 745.50 693.50Q752 687 752 678Q752 675 751 670L628 52Q623 27 613 13.50Q603 0 579 0L539 0Q516 0 505 14.50Q494 29 488 52L396 386L304 52Q298 29 287 14.50Q276 0 253 0L213 0Q189 0 179 13.50Q169 27 164 52L41 670Q40 675 40 678Q40 687 46.50 693.50Q53 700 62 700L102 700Q112 700 121 694Q130 688 133 673L235 120L345 516Q347 523 354 534Q361 545 379 545L413 545L413 545M429 871Q440 884 447.50 887Q455 890 466 890L545 890Q564 890 564 870Q564 863 559 858L448 767Q440 760 431 755Q422 750 406 750L364 750Q348 750 348 766Q348 774 353 779L429 871Z"  horiz-adv-x="792" vert-adv-y="1000"  />

      
      <glyph glyph-name="uni0174" unicode="&#x0174;" d="M413 545Q431 545 438 534Q445 523 447 516L557 120L659 673Q662 688 671 694Q680 700 690 700L730 700Q739 700 745.50 693.50Q752 687 752 678Q752 675 751 670L628 52Q623 27 613 13.50Q603 0 579 0L539 0Q516 0 505 14.50Q494 29 488 52L396 386L304 52Q298 29 287 14.50Q276 0 253 0L213 0Q189 0 179 13.50Q169 27 164 52L41 670Q40 675 40 678Q40 687 46.50 693.50Q53 700 62 700L102 700Q112 700 121 694Q130 688 133 673L235 120L345 516Q347 523 354 534Q361 545 379 545L413 545L413 545M411 890Q422 890 430 886Q438 882 448 871L540 779Q545 774 545 766Q545 750 529 750L503 750Q493 750 487 752.50Q481 755 472 761L396 812L320 761Q311 755 305 752.50Q299 750 289 750L263 750Q247 750 247 766Q247 774 252 779L344 871Q354 882 362 886Q370 890 381 890L411 890Z"  horiz-adv-x="792" vert-adv-y="1000"  />

      
      <glyph glyph-name="uni1E84" unicode="&#x1E84;" d="M413 545Q431 545 438 534Q445 523 447 516L557 120L659 673Q662 688 671 694Q680 700 690 700L730 700Q739 700 745.50 693.50Q752 687 752 678Q752 675 751 670L628 52Q623 27 613 13.50Q603 0 579 0L539 0Q516 0 505 14.50Q494 29 488 52L396 386L304 52Q298 29 287 14.50Q276 0 253 0L213 0Q189 0 179 13.50Q169 27 164 52L41 670Q40 675 40 678Q40 687 46.50 693.50Q53 700 62 700L102 700Q112 700 121 694Q130 688 133 673L235 120L345 516Q347 523 354 534Q361 545 379 545L413 545L413 545M346 777Q346 766 338 758Q330 750 319 750L262 750Q251 750 243 758Q235 766 235 777L235 834Q235 845 243 853Q251 861 262 861L319 861Q330 861 338 853Q346 845 346 834L346 777M557 777Q557 766 549 758Q541 750 530 750L473 750Q462 750 454 758Q446 766 446 777L446 834Q446 845 454 853Q462 861 473 861L530 861Q541 861 549 853Q557 845 557 834L557 777Z"  horiz-adv-x="792" vert-adv-y="1000"  />

      
      <glyph glyph-name="uni1E80" unicode="&#x1E80;" d="M413 545Q431 545 438 534Q445 523 447 516L557 120L659 673Q662 688 671 694Q680 700 690 700L730 700Q739 700 745.50 693.50Q752 687 752 678Q752 675 751 670L628 52Q623 27 613 13.50Q603 0 579 0L539 0Q516 0 505 14.50Q494 29 488 52L396 386L304 52Q298 29 287 14.50Q276 0 253 0L213 0Q189 0 179 13.50Q169 27 164 52L41 670Q40 675 40 678Q40 687 46.50 693.50Q53 700 62 700L102 700Q112 700 121 694Q130 688 133 673L235 120L345 516Q347 523 354 534Q361 545 379 545L413 545L413 545M438 779Q443 774 443 766Q443 750 427 750L385 750Q369 750 360 755Q351 760 343 767L232 858Q227 863 227 870Q227 890 246 890L325 890Q336 890 343.50 887Q351 884 362 871L438 779Z"  horiz-adv-x="792" vert-adv-y="1000"  />

      
      <glyph glyph-name="uni58" unicode="&#x58;" d="M317 281L129 23Q124 17 116 8.50Q108 0 88 0L45 0Q36 0 29.50 6.50Q23 13 23 22Q23 24 23.50 26.50Q24 29 26 33L262 357L36 667Q33 673 33 678Q33 687 39.50 693.50Q46 700 55 700L102 700Q122 700 131 690Q140 680 144 675L322 431L496 674Q500 679 509 689.50Q518 700 538 700L581 700Q590 700 596.50 693.50Q603 687 603 678Q603 673 600 667L377 355L612 33Q614 29 614.50 26.50Q615 24 615 22Q615 13 608.50 6.50Q602 0 593 0L546 0Q526 0 518 8.50Q510 17 505 23L317 281Z"  horiz-adv-x="638" vert-adv-y="1000"  />

      
      <glyph glyph-name="uni59" unicode="&#x59;" d="M369 27Q369 16 361 8Q353 0 342 0L301 0Q290 0 282 8Q274 16 274 27L274 261L35 664Q30 673 30 678Q30 687 36.50 693.50Q43 700 52 700L95 700Q115 700 123.50 692Q132 684 137 675L321 357L506 675Q511 684 519.50 692Q528 700 548 700L591 700Q600 700 606.50 693.50Q613 687 613 678Q613 673 608 664L369 261L369 27Z"  horiz-adv-x="643" vert-adv-y="1000"  />

      
      <glyph glyph-name="unidd" unicode="&#xdd;" d="M369 27Q369 16 361 8Q353 0 342 0L301 0Q290 0 282 8Q274 16 274 27L274 261L35 664Q30 673 30 678Q30 687 36.50 693.50Q43 700 52 700L95 700Q115 700 123.50 692Q132 684 137 675L321 357L506 675Q511 684 519.50 692Q528 700 548 700L591 700Q600 700 606.50 693.50Q613 687 613 678Q613 673 608 664L369 261L369 27M352 871Q363 884 370.50 887Q378 890 389 890L468 890Q487 890 487 870Q487 863 482 858L371 767Q363 760 354 755Q345 750 329 750L287 750Q271 750 271 766Q271 774 276 779L352 871Z"  horiz-adv-x="643" vert-adv-y="1000"  />

      
      <glyph glyph-name="uni0176" unicode="&#x0176;" d="M369 27Q369 16 361 8Q353 0 342 0L301 0Q290 0 282 8Q274 16 274 27L274 261L35 664Q30 673 30 678Q30 687 36.50 693.50Q43 700 52 700L95 700Q115 700 123.50 692Q132 684 137 675L321 357L506 675Q511 684 519.50 692Q528 700 548 700L591 700Q600 700 606.50 693.50Q613 687 613 678Q613 673 608 664L369 261L369 27M336 890Q347 890 355 886Q363 882 373 871L465 779Q470 774 470 766Q470 750 454 750L428 750Q418 750 412 752.50Q406 755 397 761L321 812L245 761Q236 755 230 752.50Q224 750 214 750L188 750Q172 750 172 766Q172 774 177 779L269 871Q279 882 287 886Q295 890 306 890L336 890Z"  horiz-adv-x="643" vert-adv-y="1000"  />

      
      <glyph glyph-name="uni0178" unicode="&#x0178;" d="M369 27Q369 16 361 8Q353 0 342 0L301 0Q290 0 282 8Q274 16 274 27L274 261L35 664Q30 673 30 678Q30 687 36.50 693.50Q43 700 52 700L95 700Q115 700 123.50 692Q132 684 137 675L321 357L506 675Q511 684 519.50 692Q528 700 548 700L591 700Q600 700 606.50 693.50Q613 687 613 678Q613 673 608 664L369 261L369 27M271 777Q271 766 263 758Q255 750 244 750L187 750Q176 750 168 758Q160 766 160 777L160 834Q160 845 168 853Q176 861 187 861L244 861Q255 861 263 853Q271 845 271 834L271 777M482 777Q482 766 474 758Q466 750 455 750L398 750Q387 750 379 758Q371 766 371 777L371 834Q371 845 379 853Q387 861 398 861L455 861Q466 861 474 853Q482 845 482 834L482 777Z"  horiz-adv-x="643" vert-adv-y="1000"  />

      
      <glyph glyph-name="uni1EF2" unicode="&#x1EF2;" d="M369 27Q369 16 361 8Q353 0 342 0L301 0Q290 0 282 8Q274 16 274 27L274 261L35 664Q30 673 30 678Q30 687 36.50 693.50Q43 700 52 700L95 700Q115 700 123.50 692Q132 684 137 675L321 357L506 675Q511 684 519.50 692Q528 700 548 700L591 700Q600 700 606.50 693.50Q613 687 613 678Q613 673 608 664L369 261L369 27M364 779Q369 774 369 766Q369 750 353 750L311 750Q295 750 286 755Q277 760 269 767L158 858Q153 863 153 870Q153 890 172 890L251 890Q262 890 269.50 887Q277 884 288 871L364 779Z"  horiz-adv-x="643" vert-adv-y="1000"  />

      
      <glyph glyph-name="uni5a" unicode="&#x5a;" d="M532 90Q543 90 551 82Q559 74 559 63L559 27Q559 16 551 8Q543 0 532 0L66 0Q55 0 47 8Q39 16 39 27L39 63Q39 76 45 84.50Q51 93 54 98L425 610L76 610Q65 610 57 618Q49 626 49 637L49 673Q49 684 57 692Q65 700 76 700L522 700Q533 700 541 692Q549 684 549 673L549 637Q549 626 545 618.50Q541 611 536 604L163 90L532 90Z"  horiz-adv-x="598" vert-adv-y="1000"  />

      
      <glyph glyph-name="uni0179" unicode="&#x0179;" d="M532 90Q543 90 551 82Q559 74 559 63L559 27Q559 16 551 8Q543 0 532 0L66 0Q55 0 47 8Q39 16 39 27L39 63Q39 76 45 84.50Q51 93 54 98L425 610L76 610Q65 610 57 618Q49 626 49 637L49 673Q49 684 57 692Q65 700 76 700L522 700Q533 700 541 692Q549 684 549 673L549 637Q549 626 545 618.50Q541 611 536 604L163 90L532 90M330 871Q341 884 348.50 887Q356 890 367 890L446 890Q465 890 465 870Q465 863 460 858L349 767Q341 760 332 755Q323 750 307 750L265 750Q249 750 249 766Q249 774 254 779L330 871Z"  horiz-adv-x="598" vert-adv-y="1000"  />

      
      <glyph glyph-name="uni017D" unicode="&#x017D;" d="M532 90Q543 90 551 82Q559 74 559 63L559 27Q559 16 551 8Q543 0 532 0L66 0Q55 0 47 8Q39 16 39 27L39 63Q39 76 45 84.50Q51 93 54 98L425 610L76 610Q65 610 57 618Q49 626 49 637L49 673Q49 684 57 692Q65 700 76 700L522 700Q533 700 541 692Q549 684 549 673L549 637Q549 626 545 618.50Q541 611 536 604L163 90L532 90M284 750Q273 750 265 754Q257 758 247 769L155 861Q150 866 150 874Q150 890 166 890L192 890Q202 890 208 887.50Q214 885 223 879L299 828L375 879Q384 885 390 887.50Q396 890 406 890L432 890Q448 890 448 874Q448 866 443 861L351 769Q341 758 333 754Q325 750 314 750L284 750Z"  horiz-adv-x="598" vert-adv-y="1000"  />

      
      <glyph glyph-name="uni017B" unicode="&#x017B;" d="M532 90Q543 90 551 82Q559 74 559 63L559 27Q559 16 551 8Q543 0 532 0L66 0Q55 0 47 8Q39 16 39 27L39 63Q39 76 45 84.50Q51 93 54 98L425 610L76 610Q65 610 57 618Q49 626 49 637L49 673Q49 684 57 692Q65 700 76 700L522 700Q533 700 541 692Q549 684 549 673L549 637Q549 626 545 618.50Q541 611 536 604L163 90L532 90M355 777Q355 766 347 758Q339 750 328 750L271 750Q260 750 252 758Q244 766 244 777L244 834Q244 845 252 853Q260 861 271 861L328 861Q339 861 347 853Q355 845 355 834L355 777Z"  horiz-adv-x="598" vert-adv-y="1000"  />

      
      <glyph glyph-name="uni61" unicode="&#x61;" d="M38 131Q38 171 54 201Q70 231 98 252Q126 273 163.50 286Q201 299 243 306L384 329L384 342Q384 393 350.50 418.50Q317 444 267 444Q223 444 200.50 428Q178 412 162 390Q156 382 149 379Q142 376 130 376L100 376Q89 376 80.50 384Q72 392 73 403Q75 425 90.50 448Q106 471 132.50 489Q159 507 193.50 518.50Q228 530 267 530Q312 530 350.50 517Q389 504 416.50 479Q444 454 459.50 417Q475 380 475 332L475 27Q475 16 467 8Q459 0 448 0L411 0Q400 0 392 8Q384 16 384 27L384 68Q375 49 356 34.50Q337 20 312.50 10Q288 0 261.50-5Q235-10 212-10Q173-10 140.50 1Q108 12 85.50 30.50Q63 49 50.50 75Q38 101 38 131M222 76Q258 76 288 87Q318 98 339.50 117.50Q361 137 372.50 164Q384 191 384 224L384 249L266 230Q203 220 166 198Q129 176 129 141Q129 130 134 119Q139 108 150 98Q161 88 178.50 82Q196 76 222 76Z"  horiz-adv-x="546" vert-adv-y="1000"  />

      
      <glyph glyph-name="unie1" unicode="&#xe1;" d="M38 131Q38 171 54 201Q70 231 98 252Q126 273 163.50 286Q201 299 243 306L384 329L384 342Q384 393 350.50 418.50Q317 444 267 444Q223 444 200.50 428Q178 412 162 390Q156 382 149 379Q142 376 130 376L100 376Q89 376 80.50 384Q72 392 73 403Q75 425 90.50 448Q106 471 132.50 489Q159 507 193.50 518.50Q228 530 267 530Q312 530 350.50 517Q389 504 416.50 479Q444 454 459.50 417Q475 380 475 332L475 27Q475 16 467 8Q459 0 448 0L411 0Q400 0 392 8Q384 16 384 27L384 68Q375 49 356 34.50Q337 20 312.50 10Q288 0 261.50-5Q235-10 212-10Q173-10 140.50 1Q108 12 85.50 30.50Q63 49 50.50 75Q38 101 38 131M222 76Q258 76 288 87Q318 98 339.50 117.50Q361 137 372.50 164Q384 191 384 224L384 249L266 230Q203 220 166 198Q129 176 129 141Q129 130 134 119Q139 108 150 98Q161 88 178.50 82Q196 76 222 76M298 716Q309 729 316.50 732Q324 735 335 735L409 735Q428 735 428 715Q428 708 423 703L312 612Q304 605 295 600Q286 595 270 595L233 595Q217 595 217 611Q217 619 222 624L298 716Z"  horiz-adv-x="546" vert-adv-y="1000"  />

      
      <glyph glyph-name="uni0103" unicode="&#x0103;" d="M38 131Q38 171 54 201Q70 231 98 252Q126 273 163.50 286Q201 299 243 306L384 329L384 342Q384 393 350.50 418.50Q317 444 267 444Q223 444 200.50 428Q178 412 162 390Q156 382 149 379Q142 376 130 376L100 376Q89 376 80.50 384Q72 392 73 403Q75 425 90.50 448Q106 471 132.50 489Q159 507 193.50 518.50Q228 530 267 530Q312 530 350.50 517Q389 504 416.50 479Q444 454 459.50 417Q475 380 475 332L475 27Q475 16 467 8Q459 0 448 0L411 0Q400 0 392 8Q384 16 384 27L384 68Q375 49 356 34.50Q337 20 312.50 10Q288 0 261.50-5Q235-10 212-10Q173-10 140.50 1Q108 12 85.50 30.50Q63 49 50.50 75Q38 101 38 131M222 76Q258 76 288 87Q318 98 339.50 117.50Q361 137 372.50 164Q384 191 384 224L384 249L266 230Q203 220 166 198Q129 176 129 141Q129 130 134 119Q139 108 150 98Q161 88 178.50 82Q196 76 222 76M266 590Q234 590 210.50 601Q187 612 172 630Q157 648 149.50 670.50Q142 693 142 716Q142 724 147 729.50Q152 735 161 735L193 735Q202 735 207 729.50Q212 724 212 716Q212 690 226 673Q240 656 266 656Q292 656 306 673Q320 690 320 716Q320 724 325 729.50Q330 735 339 735L371 735Q380 735 385 729.50Q390 724 390 716Q390 693 382.50 670.50Q375 648 360 630Q345 612 321.50 601Q298 590 266 590Z"  horiz-adv-x="546" vert-adv-y="1000"  />

      
      </font>
</defs>
</svg>
